Начать новую тему Ответить на тему
Статистика раздачи
Размер: 473.47 МБ | Добавлен: 29 июн 2020, 10:01 | Скачали: 0
Сидеров: 1  [0 байт/сек]    Личеров: 0  [0 байт/сек]
Пред. тема | След. тема 

Автор
Сообщение

СообщениеДобавлено: 29 июн 2020, 10:01 

Ответить с цитатой 

B.B. King & Eric Clapton / Riding with the King (2020 Deluxe Edition)
Жанр: Blues
Носитель: WEB
Год издания: 2020
Издатель (лейбл): Reprise
Страна исполнителя (группы): USA , UK
Аудиокодек: FLAC (*.flac)
Тип рипа: tracks
Продолжительность: 70:54
Источник: собственная покупка по версии Vknish
Наличие сканов в содержимом раздачи: нет
Треклист:
01. Riding with the King 04:23
02. Ten Long Years 04:40
03. Key to the Highway 03:40
04. Marry You 04:59
05. Three O'Clock Blues 08:36
06. Help the Poor 05:06
07. I Wanna Be 04:45
08. Worried Life Blues 04:25
09. Days of Old 03:00
10. When My Heart Beats Like a Hammer 07:09
11. Hold on I'm Coming 06:20
12. Come Rain or Come Shine 04:12
13. Rollin' and Tumblin' 04:32
14. Let Me Love You 05:07
Код:
-----------------------
DON'T MODIFY THIS FILE
-----------------------
PERFORMER: auCDtect Task Manager, ver. 1.6.0 RC1 build 1.6.0.1
Copyright (c) 2008-2010 y-soft. All rights reserved
[url=http://y-soft.org]http://y-soft.org[/url]
ANALYZER: auCDtect: CD records authenticity detector, version 0.8.2
Copyright (c) 2004 Oleg Berngardt. All rights reserved.
Copyright (c) 2004 Alexander Djourik. All rights reserved.
FILE: 14. Let Me Love You.flac
  Size: 35406703 Hash: 5BCBAB69151D8BC8D65820F8D89D3022 Accuracy: -m0
  Conclusion: CDDA 100%
  Signature: 7663715213C59AD5D128BBE9033334A7E0E405B9
FILE: 13. Rollin' and Tumblin'.flac
  Size: 32471422 Hash: C3568FA74986043AC13C73389B0A661F Accuracy: -m0
  Conclusion: CDDA 100%
  Signature: 884720CD1B37EC8BD1A807C2F5307DC7BAB289D9
FILE: 12. Come Rain or Come Shine.flac
  Size: 28394301 Hash: 9DBD29C088404D8C258CB89AECF7FD68 Accuracy: -m0
  Conclusion: CDDA 100%
  Signature: 0A29338E28B8B4CB158549C71E1F4254C37CBC64
FILE: 11. Hold on I'm Coming.flac
  Size: 46473744 Hash: 850FF0A3E3EBAE785F3203105B621861 Accuracy: -m0
  Conclusion: CDDA 99%
  Signature: 306BB13839114A28BA9F2FCAD2A26A65970B6DB6
FILE: 10. When My Heart Beats Like a Hammer.flac
  Size: 45550020 Hash: 5FF7FD1B7D42B47FE0364A5BC87FBE64 Accuracy: -m0
  Conclusion: CDDA 100%
  Signature: B3FA19ABE431A0E5CA44BEF154D6E9991C59EBA0
FILE: 09. Days of Old.flac
  Size: 23573689 Hash: 8F869BFEC5C30CB96F5D1BAA51E7A721 Accuracy: -m0
  Conclusion: CDDA 100%
  Signature: F045B1675BECD4554A5E27A0A043B65AB2A5AFB6
FILE: 08. Worried Life Blues.flac
  Size: 29587988 Hash: 1F8D36C2E450D9B69EC9686D61C7C23A Accuracy: -m0
  Conclusion: CDDA 100%
  Signature: 896973736D753731BD81177B1158D0505E7F7356
[color=red]FILE: 07. I Wanna Be.flac
  Size: 37411093 Hash: 72424EDD5056F21EAE33732E39F197D7 Accuracy: -m0
  Conclusion: MPEG 95%
  Signature: B416C32228CCC6A63F5345EFB575AF1CBBCAB0A3[/color]
FILE: 06. Help the Poor.flac
  Size: 35402997 Hash: 066F2C5A38D46F867897E2BDEA599250 Accuracy: -m0
  Conclusion: CDDA 100%
  Signature: 97288733E3E3F8B4FA4CC83E6A6961320620AE8C
FILE: 05. Three O'Clock Blues.flac
  Size: 53291548 Hash: E6E42FA2F767C446A7192991FDD8385C Accuracy: -m0
  Conclusion: CDDA 100%
  Signature: B94B92FBCA693EF81B30436FDB228619A5710189
FILE: 04. Marry You.flac
  Size: 37294353 Hash: 4D72F3EFD356EFF14675E182F70D6ABC Accuracy: -m0
  Conclusion: CDDA 100%
  Signature: 6E993CBE3220A9BB98D07F95ACB53DB4204DFA74
FILE: 03. Key to the Highway.flac
  Size: 25458037 Hash: 300C280EBF282DF5D48BAB2FF59E5671 Accuracy: -m0
  Conclusion: CDDA 100%
  Signature: 29F518B956AB87F0AACCD40B21BB8CBF8AD4F2E3
FILE: 02. Ten Long Years.flac
  Size: 32798932 Hash: 974E4971656A455A7A41A282D35F0AEF Accuracy: -m0
  Conclusion: CDDA 100%
  Signature: 4E7CAEF0C0D76DC6BB3D5B2F6683BEEBBE6FD6FE
FILE: 01. Riding with the King.flac
  Size: 33451496 Hash: D05F4D4A294F1D3049526C5431AE0CA3 Accuracy: -m0
  Conclusion: CDDA 100%
  Signature: C81E262DFE81121304D091D88920A8928B1C5D2F
Код:
foobar2000 1.3.17 / Dynamic Range Meter 1.1.1
log date: 2020-06-26 19:16:24
--------------------------------------------------------------------------------
Analyzed: Eric Clapton; B.B. King / Riding with the King (Deluxe Edition)
--------------------------------------------------------------------------------
DR         Peak         RMS     Duration Track
--------------------------------------------------------------------------------
DR8        0.00 dB    -9.78 dB      4:23 01-Riding with the King
DR9        0.00 dB    -9.96 dB      4:41 02-Ten Long Years
DR11       0.00 dB   -12.77 dB      3:40 03-Key to the Highway
DR7       -0.09 dB    -8.97 dB      4:59 04-Marry You
DR6        0.00 dB    -8.83 dB      8:37 05-Three O'Clock Blues
DR6       -0.01 dB    -7.88 dB      5:06 06-Help the Poor
DR8       -0.09 dB    -9.20 dB      4:46 07-I Wanna Be
DR8        0.00 dB   -10.15 dB      4:26 08-Worried Life Blues
DR6       -0.05 dB    -7.68 dB      3:00 09-Days of Old
DR7        0.00 dB    -8.96 dB      7:10 10-When My Heart Beats Like a Hammer
DR6        0.00 dB    -7.52 dB      6:20 11-Hold on I'm Coming
DR7       -0.10 dB    -9.84 dB      4:12 12-Come Rain or Come Shine
DR7        0.00 dB    -8.48 dB      4:32 13-Rollin' and Tumblin'
DR7        0.00 dB    -8.92 dB      5:07 14-Let Me Love You
--------------------------------------------------------------------------------
Number of tracks:  14
Official DR value: DR7
Samplerate:        44100 Hz
Channels:          2
Bits per sample:   16
Bitrate:           920 kbps
Codec:             FLAC
================================================================================
-----------------------------------------------------
Юбилейное издание к 20-ти летию выхода альбома от Reprise , с добавлением двух треков (13 , 14).
Как обычно что-то пошаманили , ручки приложили. Хорошо это или плохо вам решать.
Правила, инструкции, FAQ!!!
Торрент  Добавлен [29 июн 2020, 10:01] Скачать торрент Магнет ссылка
Скачать торрент
[ Размер 19.87 КБ / Просмотров 2 ]

Статус
Проверен 
 
Размер  473.47 МБ
Приватный: Нет (DHT включён)
.torrent скачан  0
 


     Отправить личное сообщение
   
Страница 1 из 1
Показать сообщения за:  Поле сортировки  
Начать новую тему Ответить на тему


Сейчас этот форум просматривают: нет зарегистрированных пользователей и гости: 0


Вы не можете начинать темы
Вы не можете отвечать на сообщения
Вы не можете редактировать свои сообщения
Вы не можете удалять свои сообщения
Вы не можете добавлять вложения

Перейти:  
cron