Начать новую тему Ответить на тему
Статистика раздачи
Размер: 290.35 МБ | Добавлен: 26 мар 2019, 19:24 | Скачали: 0
Сидеров: 0  [0 байт/сек]    Личеров: 0  [0 байт/сек]
Пред. тема | След. тема 

Автор
Сообщение

СообщениеДобавлено: 26 мар 2019, 19:24 

Ответить с цитатой 

James Morrison - Undiscovered
Жанр: Blues
Год выпуска диска: 2007
Производитель диска: Russia
Аудио кодек: FLAC
Тип рипа: tracks+.cue
Битрейт аудио: lossless
Продолжительность: 44:02
Трэклист:
01. Under the influence (4:08)
02. You give me something (3:34)
03. Wonderful world (3:31)
04. The pieces don't fit anymore (4:17)
05. One last chance (4:48)
06. Undiscovered (3:29)
07. The letter (3:14)
08. Call the police (3:47)
09. This boy (3:54)
10. If the rain must fall (4:05)
11. The last goodbye (5:14)
Доп. информация:
Exact Audio Copy V0.99 prebeta 4 from 23. January 2008
Отчёт EAC об извлечении, выполненном 1. февраля 2009, 11:56
James Morrison / Undiscovered
Дисковод: Optiarc DVD RW AD-7593A Adapter: 0 ID: 0
Режим чтения : Достоверность
Использование точного потока : Да
Отключение кэша аудио : Да
Использование указателей C2 : Нет
Коррекция смещения при чтении : 48
Способность читать области Lead-in и Lead-out : Нет
Заполнение пропущенных сэмплов тишиной : Да
Удаление блоков с тишиной в начале и конце : Нет
При вычислениях CRC использовались нулевые сэмплы : Да
Интерфейс : Установленный внешний ASPI-интерфейс
Выходной формат : Пользовательский кодировщик
Выбранный битрейт : 768 kBit/s
Качество : Высокий
Добавление ID3-тэга : Нет
Утилита сжатия : C:\Program Files\Exact Audio Copy\Flac\flac.exe
Дополнительные параметры : -8 -V %s -o %d
TOC извлечённого CD
Трек | Старт | Длительность | Начальный сектор | Конечный сектор
---------------------------------------------------------------------
1 | 0:00.00 | 4:08.09 | 0 | 18608
2 | 4:08.09 | 3:33.52 | 18609 | 34635
3 | 7:41.61 | 3:30.70 | 34636 | 50455
4 | 11:12.56 | 4:17.26 | 50456 | 69756
5 | 15:30.07 | 4:47.57 | 69757 | 91338
6 | 20:17.64 | 3:29.18 | 91339 | 107031
7 | 23:47.07 | 3:14.23 | 107032 | 121604
8 | 27:01.30 | 3:46.47 | 121605 | 138601
9 | 30:48.02 | 3:54.24 | 138602 | 156175
10 | 34:42.26 | 4:05.28 | 156176 | 174578
11 | 38:47.54 | 5:14.27 | 174579 | 198155
Характеристики диапазона извлечения и сообщения об ошибках
Выбранный диапазон
Имя файла C:\Documents and Settings\edge\Рабочий стол\James Morrison - 2007 - Undiscovered\James Morrison - Undiscovered.wav
Пиковый уровень 98.7 %
Качество диапазона 100.0 %
CRC теста 95E8CE47
CRC копии 95E8CE47
Копирование... OK
Ошибок не произошло
AccurateRip: сводка
Трек 1 точное извлечение (доверие 14) [144C950D]
Трек 2 точное извлечение (доверие 14) [32755298]
Трек 3 точное извлечение (доверие 14) [F1ECA91A]
Трек 4 точное извлечение (доверие 14) [A1DD77F4]
Трек 5 точное извлечение (доверие 14) [38D0E87F]
Трек 6 точное извлечение (доверие 14) [62451043]
Трек 7 точное извлечение (доверие 14) [503299A3]
Трек 8 точное извлечение (доверие 14) [F6FCDE5A]
Трек 9 точное извлечение (доверие 14) [D2FAAEDF]
Трек 10 точное извлечение (доверие 14) [372FDB38]
Трек 11 точное извлечение (доверие 13) [7E753D8B]
Все треки извлечены точно
Конец отчёта
AUDIOCHECKER v1.2 - by Dester - opdester@freemail.hu
~~~~~~~~~~~~~~~~~
1 -===- C:\Documents and Settings\edge\Рабочий стол\James Morrison - 2007 - Undiscovered\James Morrison - Undiscovered.flac
Extracted successfully
Conclusion: This track looks like CDDA with probability 100%
Правила, инструкции, FAQ!!!
Торрент  Добавлен [26 мар 2019, 19:24] Скачать торрент Магнет ссылка
Скачать торрент
[ Размер 24.19 КБ / Просмотров 1 ]

Статус
Проверен 
 
Размер  290.35 МБ
Приватный: Нет (DHT включён)
.torrent скачан  0
 


     Отправить личное сообщение
   
Страница 1 из 1
Показать сообщения за:  Поле сортировки  
Начать новую тему Ответить на тему


Сейчас этот форум просматривают: нет зарегистрированных пользователей и гости: 0


Вы не можете начинать темы
Вы не можете отвечать на сообщения
Вы не можете редактировать свои сообщения
Вы не можете удалять свои сообщения
Вы не можете добавлять вложения

Перейти:  
cron