Начать новую тему Ответить на тему
Статистика раздачи
Размер: 363.35 МБ | Добавлен: 15 ноя 2020, 22:46 | Скачали: 0
Сидеров: 7  [0 байт/сек]    Личеров: 2  [0 байт/сек]
Пред. тема | След. тема 

Автор
Сообщение

СообщениеДобавлено: 15 ноя 2020, 22:46 

Ответить с цитатой 

T For Texas
#777Жанр: Blues
Носитель: CD
Страна-производитель диска (релиза): Denmark
Год издания: 1988
Издатель (лейбл): Polarvox Oy
Номер по каталогу: TEXCD 1
Страна исполнителя (группы): USA
Аудиокодек: FLAC (*.flac)
Тип рипа: image+.cue
Продолжительность: 61:14
Источник: собственный рип
Наличие сканов в содержимом раздачи: нет
Треклист:
Omar & The Howlers
01. Border Girl - 3:50
02. Give Me A Chance - 3:00
03. Shake For Me - 2:30
04. Magic Man - 2:52
05. Rocket To Nowhere - 2:41
06. I Told YOu So - 2:48
07. Ice Cold Woman - 2:51
08. I'm Wise To You Baby - 2:43
09. East Side Blues - 5:02
Four Big Guitars From Texas
10. The Lost Incas - 2:38
11. Guitar Army - 2:58
12. Bulldoggin' Boogie - 2:42
13. Do The Dootz - 1:50
14. The Good, The Bad And The Ugly - 2:33
15. Riot At Huntsville - 2:27
Commandos
16. HWY 90 - 3:29
17. Edge Of Town - 2:48
18. Baby Don't Be Blue - 2:27
19. My Little Sister - 3:42
20. Tell Me Why - 4:04
Код:
Exact Audio Copy V1.3 from 2. September 2016
EAC extraction logfile from 9. November 2020, 13:50
Various / T for Texas
Used drive  : PIONEER DVD-RW DVRTD11RS   Adapter: 0  ID: 0
Read mode               : Secure
Utilize accurate stream : Yes
Defeat audio cache      : Yes
Make use of C2 pointers : No
Read offset correction                      : 6
Overread into Lead-In and Lead-Out          : No
Fill up missing offset samples with silence : Yes
Delete leading and trailing silent blocks   : No
Null samples used in CRC calculations       : Yes
Used interface                              : Installed external ASPI interface
Used output format              : User Defined Encoder
Selected bitrate                : 768 kBit/s
Quality                         : High
Add ID3 tag                     : No
Command line compressor         : C:\Program Files (x86)\Exact Audio Copy\FLAC\FLAC.EXE
Additional command line options : -V -8 -T "Genre=%genre%" -T "Artist=%artist%" -T "Title=%title%" -T "Album=%albumtitle%" -T "Date=%year%" -T "Tracknumber=%tracknr%" -T "Comment=%comment%" %source%
TOC of the extracted CD
     Track |   Start  |  Length  | Start sector | End sector
    ---------------------------------------------------------
        1  |  0:00.00 |  3:51.37 |         0    |    17361
        2  |  3:51.37 |  2:59.38 |     17362    |    30824
        3  |  6:51.00 |  2:33.37 |     30825    |    42336
        4  |  9:24.37 |  2:55.00 |     42337    |    55461
        5  | 12:19.37 |  2:45.40 |     55462    |    67876
        6  | 15:05.02 |  2:51.35 |     67877    |    80736
        7  | 17:56.37 |  2:54.53 |     80737    |    93839
        8  | 20:51.15 |  2:47.00 |     93840    |   106364
        9  | 23:38.15 |  5:05.25 |    106365    |   129264
       10  | 28:43.40 |  2:39.72 |    129265    |   141261
       11  | 31:23.37 |  3:01.03 |    141262    |   154839
       12  | 34:24.40 |  2:44.72 |    154840    |   167211
       13  | 37:09.37 |  1:54.00 |    167212    |   175761
       14  | 39:03.37 |  2:35.40 |    175762    |   187426
       15  | 41:39.02 |  2:52.73 |    187427    |   200399
       16  | 44:32.00 |  3:31.40 |    200400    |   216264
       17  | 48:03.40 |  2:50.40 |    216265    |   229054
       18  | 50:54.05 |  2:29.72 |    229055    |   240301
       19  | 53:24.02 |  3:44.73 |    240302    |   257174
       20  | 57:09.00 |  4:04.02 |    257175    |   275476
Range status and errors
Selected range
     Filename C:\Various (1988) - T for Texas\Various (1988) - T for Texas.wav
     Peak level 100.0 %
     Extraction speed 5.2 X
     Range quality 100.0 %
     Test CRC D40E329C
     Copy CRC D40E329C
     Copy OK
No errors occurred
AccurateRip summary
Track  1  cannot be verified as accurate (confidence 1)  [BCB400DE], AccurateRip returned [CECCE6B2]  (AR v2)
Track  2  accurately ripped (confidence 1)  [2E10A015]  (AR v2)
Track  3  accurately ripped (confidence 1)  [0616548E]  (AR v2)
Track  4  accurately ripped (confidence 1)  [F40BA994]  (AR v2)
Track  5  accurately ripped (confidence 1)  [0CFAA9F9]  (AR v2)
Track  6  accurately ripped (confidence 1)  [F7B95180]  (AR v2)
Track  7  accurately ripped (confidence 1)  [3118772A]  (AR v2)
Track  8  accurately ripped (confidence 1)  [9CBED7D6]  (AR v2)
Track  9  accurately ripped (confidence 1)  [1BB6DDC1]  (AR v2)
Track 10  cannot be verified as accurate (confidence 1)  [9670C047], AccurateRip returned [2BC843C2]  (AR v2)
Track 11  accurately ripped (confidence 1)  [012D67C3]  (AR v2)
Track 12  accurately ripped (confidence 1)  [DA0A051A]  (AR v2)
Track 13  accurately ripped (confidence 1)  [E6C7FF63]  (AR v2)
Track 14  accurately ripped (confidence 1)  [FC6F3EE0]  (AR v2)
Track 15  accurately ripped (confidence 1)  [837FAA97]  (AR v2)
Track 16  cannot be verified as accurate (confidence 1)  [B0FDBB05], AccurateRip returned [91F7EDE6]  (AR v2)
Track 17  accurately ripped (confidence 1)  [C68FB739]  (AR v2)
Track 18  accurately ripped (confidence 1)  [01C7C660]  (AR v2)
Track 19  accurately ripped (confidence 1)  [F7736883]  (AR v2)
Track 20  accurately ripped (confidence 1)  [89E8F119]  (AR v2)
17 track(s) accurately ripped
 3 track(s) could not be verified as accurate
Some tracks could not be verified as accurate
End of status report
==== Log checksum 47C17B45D9E094AD2A9EB44E6525334AE63F2A9C0AE4664368D417EBF19641FD ====
Код:
REM GENRE Blues
REM DATE 1988
REM DISCID 010E5914
REM COMMENT "ExactAudioCopy v1.3"
PERFORMER "Various"
TITLE "T for Texas"
REM COMPOSER ""
FILE "Various (1988) - T for Texas.flac" WAVE
  TRACK 01 AUDIO
    TITLE "Border Girl"
    PERFORMER "Omar & the Howlers"
    REM COMPOSER ""
    INDEX 01 00:00:00
  TRACK 02 AUDIO
    TITLE "Give Me A Chance"
    PERFORMER "Omar & the Howlers"
    REM COMPOSER ""
    INDEX 00 03:50:32
    INDEX 01 03:51:37
  TRACK 03 AUDIO
    TITLE "Shake For Me"
    PERFORMER "Omar & the Howlers"
    REM COMPOSER ""
    INDEX 00 06:49:50
    INDEX 01 06:51:00
  TRACK 04 AUDIO
    TITLE "Magic Man"
    PERFORMER "Omar & the Howlers"
    REM COMPOSER ""
    INDEX 00 09:23:52
    INDEX 01 09:24:37
  TRACK 05 AUDIO
    TITLE "Rocket To Nowhere"
    PERFORMER "Omar & the Howlers"
    REM COMPOSER ""
    INDEX 00 12:18:32
    INDEX 01 12:19:37
  TRACK 06 AUDIO
    TITLE "I Told You So"
    PERFORMER "Omar & the Howlers"
    REM COMPOSER ""
    INDEX 00 15:04:27
    INDEX 01 15:05:02
  TRACK 07 AUDIO
    TITLE "Ice Cold Woman"
    PERFORMER "Omar & the Howlers"
    REM COMPOSER ""
    INDEX 00 17:55:37
    INDEX 01 17:56:37
  TRACK 08 AUDIO
    TITLE "I'm Wise To You Baby"
    PERFORMER "Omar & the Howlers"
    REM COMPOSER ""
    INDEX 00 20:49:72
    INDEX 01 20:51:15
  TRACK 09 AUDIO
    TITLE "East Side Blues"
    PERFORMER "Omar & the Howlers"
    REM COMPOSER ""
    INDEX 00 23:36:35
    INDEX 01 23:38:15
  TRACK 10 AUDIO
    TITLE "The Lost Incas"
    PERFORMER "Four Big Guitars From Texas"
    REM COMPOSER ""
    INDEX 00 28:41:65
    INDEX 01 28:43:40
  TRACK 11 AUDIO
    TITLE "Guitar Army"
    PERFORMER "Four Big Guitars From Texas"
    REM COMPOSER ""
    INDEX 00 31:21:62
    INDEX 01 31:23:37
  TRACK 12 AUDIO
    TITLE "Bulldoggin' Boogie"
    PERFORMER "Four Big Guitars From Texas"
    REM COMPOSER ""
    INDEX 00 34:22:50
    INDEX 01 34:24:40
  TRACK 13 AUDIO
    TITLE "Do The Dootz"
    PERFORMER "Four Big Guitars From Texas"
    REM COMPOSER ""
    INDEX 00 37:08:40
    INDEX 01 37:09:37
  TRACK 14 AUDIO
    TITLE "The Good, The Bad And The Ugly"
    PERFORMER "Four Big Guitars From Texas"
    REM COMPOSER ""
    INDEX 00 39:01:40
    INDEX 01 39:03:37
  TRACK 15 AUDIO
    TITLE "Riot At Huntsville"
    PERFORMER "Four Big Guitars From Texas"
    REM COMPOSER ""
    INDEX 01 41:39:02
  TRACK 16 AUDIO
    TITLE "HWY 90"
    PERFORMER "Commandos"
    REM COMPOSER ""
    INDEX 00 44:30:17
    INDEX 01 44:32:00
  TRACK 17 AUDIO
    TITLE "Edge Of Town"
    PERFORMER "Commandos"
    REM COMPOSER ""
    INDEX 00 48:01:65
    INDEX 01 48:03:40
  TRACK 18 AUDIO
    TITLE "Baby Don't Be Blue"
    PERFORMER "Commandos"
    REM COMPOSER ""
    INDEX 00 50:52:67
    INDEX 01 50:54:05
  TRACK 19 AUDIO
    TITLE "My Little Sister"
    PERFORMER "Commandos"
    REM COMPOSER ""
    INDEX 00 53:22:27
    INDEX 01 53:24:02
  TRACK 20 AUDIO
    TITLE "Tell Me Why"
    PERFORMER "Commandos"
    REM COMPOSER ""
    INDEX 00 57:07:47
    INDEX 01 57:09:00
Правила, инструкции, FAQ!!!
Торрент  Добавлен [15 ноя 2020, 22:46] Скачать торрент Магнет ссылка
Скачать торрент
[ Размер 14.89 КБ / Просмотров 1 ]

Статус
Проверен 
 
Размер  363.35 МБ
Приватный: Нет (DHT включён)
.torrent скачан  0
 


     Отправить личное сообщение
   
Страница 1 из 1
Показать сообщения за:  Поле сортировки  
Начать новую тему Ответить на тему


Сейчас этот форум просматривают: нет зарегистрированных пользователей и гости: 0


Вы не можете начинать темы
Вы не можете отвечать на сообщения
Вы не можете редактировать свои сообщения
Вы не можете удалять свои сообщения
Вы не можете добавлять вложения

Перейти:  
cron