Начать новую тему Ответить на тему
Статистика раздачи
Размер: 268.6 МБ | Добавлен: 13 дек 2020, 08:39 | Скачали: 0
Сидеров: 6  [0 байт/сек]    Личеров: 1  [0 байт/сек]
Пред. тема | След. тема 

Автор
Сообщение

СообщениеДобавлено: 13 дек 2020, 08:39 

Ответить с цитатой 

VA - 25 Blues 'n' Soul Greats, Vol. 2
#777Жанр: Blues
Носитель: CD
Страна-производитель диска (релиза): EU
Год издания: 1991
Издатель (лейбл): Tring International PLC
Номер по каталогу: VAR022
Аудиокодек: FLAC (*.flac)
Тип рипа: image+.cue
Продолжительность: 01:10:23
Источник: Leshi067
Наличие сканов в содержимом раздачи: да
01. Howlin' Wolf - Commit a Crime (3:25)
02. John Lee Hooker - Boom Boom (2:28)
03. Billie Holiday - God Bless the Child (2:47)
04. Muddy Waters - You Gonna Miss Me (2:36)
05. Gatemouth Moore - Did You Ever Love a Woman (2:39)
06. Lightnin' Hopkins - Just Pickin' (1:27)
07. B.B. King - Walkin' & Cryin' (3:28)
08. Leadbelly - Boll Weevil Blues (2:37)
09. Howlin' Wolf - Somebody Walkin' in My House (2:34)
10. John Lee Hooker - Frisco Blues (2:39)
11. Billie Holiday - Don't Explain (2:49)
12. Elmore James - Look on Yonder Wall (2:30)
13. Muddy Waters - Mean Red Spider (2:11)
14. Lightnin' Hopkins - Shake That Thing (4:01)
15. Howlin' Wolf - My Country Sugar Mama (2:31)
16. B.B. King - Please Love Me (2:49)
17. John Lee Hooker - No Shoes (2:24)
18. Billie Holiday - I Loves You, Porgy (2:30)
19. Leadbelly - The Gallis Pole (3:02)
20. Gatemouth Moore - Beale Street Ain't Beale Street No More (6:02)
21. Muddy Waters - Diamonds at Your Feet (2:15)
22. Roy Milton - Information Blues (2:27)
23. John Lee Hooker - I'm in the Mood (2:42)
24. Howlin' Wolf - My Mind Is Ramblin' (2:48)
25. Jimmy Reed - Little Rain (2:42)
Код:
Exact Audio Copy V1.5 from 20. February 2020
EAC extraction logfile from 15. November 2020, 17:14
Various Artists / 25 Blues 'N' Soul Greats, Volume 2
Used drive  : SlimtypeDVD A DS8A5SH   Adapter: 1  ID: 0
Read mode               : Secure
Utilize accurate stream : Yes
Defeat audio cache      : Yes
Make use of C2 pointers : No
Read offset correction                      : 6
Overread into Lead-In and Lead-Out          : No
Fill up missing offset samples with silence : Yes
Delete leading and trailing silent blocks   : No
Null samples used in CRC calculations       : Yes
Used interface                              : Native Win32 interface for Win NT & 2000
Used output format : Internal WAV Routines
Sample format      : 44.100 Hz; 16 Bit; Stereo
TOC of the extracted CD
     Track |   Start  |  Length  | Start sector | End sector
    ---------------------------------------------------------
        1  |  0:00.00 |  3:24.60 |         0    |    15359
        2  |  3:24.60 |  2:28.33 |     15360    |    26492
        3  |  5:53.18 |  2:47.30 |     26493    |    39047
        4  |  8:40.48 |  2:36.05 |     39048    |    50752
        5  | 11:16.53 |  2:38.35 |     50753    |    62637
        6  | 13:55.13 |  1:26.45 |     62638    |    69132
        7  | 15:21.58 |  3:27.45 |     69133    |    84702
        8  | 18:49.28 |  2:36.70 |     84703    |    96472
        9  | 21:26.23 |  2:33.50 |     96473    |   107997
       10  | 23:59.73 |  2:39.00 |    107998    |   119922
       11  | 26:38.73 |  2:48.45 |    119923    |   132567
       12  | 29:27.43 |  2:30.22 |    132568    |   143839
       13  | 31:57.65 |  2:10.35 |    143840    |   153624
       14  | 34:08.25 |  4:01.13 |    153625    |   171712
       15  | 38:09.38 |  2:31.22 |    171713    |   183059
       16  | 40:40.60 |  2:48.73 |    183060    |   195732
       17  | 43:29.58 |  2:23.60 |    195733    |   206517
       18  | 45:53.43 |  2:29.57 |    206518    |   217749
       19  | 48:23.25 |  3:01.63 |    217750    |   231387
       20  | 51:25.13 |  6:02.25 |    231388    |   258562
       21  | 57:27.38 |  2:14.45 |    258563    |   268657
       22  | 59:42.08 |  2:26.40 |    268658    |   279647
       23  | 62:08.48 |  2:41.50 |    279648    |   291772
       24  | 64:50.23 |  2:48.12 |    291773    |   304384
       25  | 67:38.35 |  2:41.43 |    304385    |   316502
Range status and errors
Selected range
     Filename D:\Music\WAV\Various Artists - 25 Blues 'N' Soul Greats, Volume 2.wav
     Peak level 100.0 %
     Extraction speed 3.3 X
     Range quality 99.9 %
     Test CRC 3ADE96A0
     Copy CRC 3ADE96A0
     Copy OK
No errors occurred
AccurateRip summary
Track  1  accurately ripped (confidence 7)  [0364BC09]  (AR v2)
Track  2  accurately ripped (confidence 7)  [0E98993C]  (AR v2)
Track  3  accurately ripped (confidence 7)  [232750AE]  (AR v2)
Track  4  accurately ripped (confidence 7)  [26F3AA3D]  (AR v2)
Track  5  accurately ripped (confidence 7)  [A438FFD7]  (AR v2)
Track  6  accurately ripped (confidence 7)  [1CF8059D]  (AR v2)
Track  7  accurately ripped (confidence 7)  [339AC4B0]  (AR v2)
Track  8  accurately ripped (confidence 7)  [47BF3B3B]  (AR v2)
Track  9  accurately ripped (confidence 7)  [4890F6A0]  (AR v2)
Track 10  accurately ripped (confidence 7)  [47DBDBFA]  (AR v2)
Track 11  accurately ripped (confidence 7)  [6E1A66D4]  (AR v2)
Track 12  accurately ripped (confidence 7)  [9B085318]  (AR v2)
Track 13  accurately ripped (confidence 7)  [C86CC931]  (AR v2)
Track 14  accurately ripped (confidence 6)  [AE1E4B1F]  (AR v2)
Track 15  accurately ripped (confidence 7)  [2B10F5E3]  (AR v2)
Track 16  accurately ripped (confidence 7)  [16536AB9]  (AR v2)
Track 17  accurately ripped (confidence 7)  [4546A477]  (AR v2)
Track 18  accurately ripped (confidence 7)  [68DDDBAB]  (AR v2)
Track 19  accurately ripped (confidence 7)  [D1ACA564]  (AR v2)
Track 20  accurately ripped (confidence 7)  [86700293]  (AR v2)
Track 21  accurately ripped (confidence 7)  [750E208D]  (AR v2)
Track 22  accurately ripped (confidence 7)  [3DC35537]  (AR v2)
Track 23  accurately ripped (confidence 7)  [D1EF6664]  (AR v2)
Track 24  accurately ripped (confidence 6)  [4C769E82]  (AR v2)
Track 25  accurately ripped (confidence 7)  [0B43D66A]  (AR v2)
All tracks accurately ripped
End of status report
==== Log checksum EE8A59767B276DFF67BAEC270240E6F279406452EE12B5C27511A7D762AC6ABF ====
Код:
REM GENRE Blues
REM DATE 1991
REM DISCID 60107C19
REM COMMENT "ExactAudioCopy v1.5"
PERFORMER "Various"
TITLE "25 Blues 'n' Soul Greats, Vol.2"
FILE "VA - 25 Blues 'n' Soul Greats, Vol.2.wav" WAVE
  TRACK 01 AUDIO
    TITLE "Commit a Crime"
    PERFORMER "Howlin' Wolf"
    INDEX 01 00:00:00
  TRACK 02 AUDIO
    TITLE "Boom Boom"
    PERFORMER "John Lee Hooker"
    INDEX 00 03:23:53
    INDEX 01 03:24:60
  TRACK 03 AUDIO
    TITLE "God Bless the Child"
    PERFORMER "Billie Holiday"
    INDEX 00 05:51:68
    INDEX 01 05:53:18
  TRACK 04 AUDIO
    TITLE "You Gonna Miss Me"
    PERFORMER "Muddy Waters"
    INDEX 00 08:39:10
    INDEX 01 08:40:48
  TRACK 05 AUDIO
    TITLE "Did You Ever Love a Woman"
    PERFORMER "Gatemouth Moore"
    INDEX 00 11:15:40
    INDEX 01 11:16:53
  TRACK 06 AUDIO
    TITLE "Just Pickin'"
    PERFORMER "Lightnin' Hopkins"
    INDEX 00 13:54:13
    INDEX 01 13:55:13
  TRACK 07 AUDIO
    TITLE "Walkin' & Cryin'"
    PERFORMER "B.B. King"
    INDEX 00 15:20:63
    INDEX 01 15:21:58
  TRACK 08 AUDIO
    TITLE "Boll Weevil Blues"
    PERFORMER "Leadbelly"
    INDEX 00 18:48:23
    INDEX 01 18:49:28
  TRACK 09 AUDIO
    TITLE "Somebody Walkin' in My House"
    PERFORMER "Howlin' Wolf"
    INDEX 00 21:25:45
    INDEX 01 21:26:23
  TRACK 10 AUDIO
    TITLE "Frisco Blues"
    PERFORMER "John Lee Hooker"
    INDEX 00 23:58:45
    INDEX 01 23:59:73
  TRACK 11 AUDIO
    TITLE "Don't Explain"
    PERFORMER "Billie Holiday"
    INDEX 00 26:38:53
    INDEX 01 26:38:73
  TRACK 12 AUDIO
    TITLE "Look on Yonder Wall"
    PERFORMER "Elmore James"
    INDEX 00 29:26:45
    INDEX 01 29:27:43
  TRACK 13 AUDIO
    TITLE "Mean Red Spider"
    PERFORMER "Muddy Waters"
    INDEX 00 31:56:53
    INDEX 01 31:57:65
  TRACK 14 AUDIO
    TITLE "Shake That Thing"
    PERFORMER "Lightnin' Hopkins"
    INDEX 00 34:07:53
    INDEX 01 34:08:25
  TRACK 15 AUDIO
    TITLE "My Country Sugar Mama"
    PERFORMER "Howlin' Wolf"
    INDEX 00 38:08:20
    INDEX 01 38:09:38
  TRACK 16 AUDIO
    TITLE "Please Love Me"
    PERFORMER "B.B. King"
    INDEX 00 40:39:30
    INDEX 01 40:40:60
  TRACK 17 AUDIO
    TITLE "No Shoes"
    PERFORMER "John Lee Hooker"
    INDEX 00 43:28:13
    INDEX 01 43:29:58
  TRACK 18 AUDIO
    TITLE "I Loves You, Porgy"
    PERFORMER "Billie Holiday"
    INDEX 00 45:52:45
    INDEX 01 45:53:43
  TRACK 19 AUDIO
    TITLE "The Gallis Pole"
    PERFORMER "Leadbelly"
    INDEX 00 48:20:53
    INDEX 01 48:23:25
  TRACK 20 AUDIO
    TITLE "Beale Street Ain't Beale Street No More"
    PERFORMER "Gatemouth Moore"
    INDEX 00 51:23:43
    INDEX 01 51:25:13
  TRACK 21 AUDIO
    TITLE "Diamonds at Your Feet"
    PERFORMER "Muddy Waters"
    INDEX 00 57:25:10
    INDEX 01 57:27:38
  TRACK 22 AUDIO
    TITLE "Information Blues"
    PERFORMER "Roy Milton"
    INDEX 00 59:40:33
    INDEX 01 59:42:08
  TRACK 23 AUDIO
    TITLE "I'm in the Mood"
    PERFORMER "John Lee Hooker"
    INDEX 00 62:06:50
    INDEX 01 62:08:48
  TRACK 24 AUDIO
    TITLE "My Mind Is Ramblin'"
    PERFORMER "Howlin' Wolf"
    INDEX 00 64:47:53
    INDEX 01 64:50:23
  TRACK 25 AUDIO
    TITLE "Little Rain"
    PERFORMER "Jimmy Reed"
    INDEX 00 67:36:45
    INDEX 01 67:38:35
Код:
[CUETools log; Date: 03.12.2020 0:25:32; Version: 2.1.6]
[CTDB TOCID: 7cGWkj5Y6kds8fG0EWZiSWWSxkQ-] found.
Track | CTDB Status
  1   | (21/21) Accurately ripped
  2   | (21/21) Accurately ripped
  3   | (21/21) Accurately ripped
  4   | (21/21) Accurately ripped
  5   | (21/21) Accurately ripped
  6   | (21/21) Accurately ripped
  7   | (21/21) Accurately ripped
  8   | (21/21) Accurately ripped
  9   | (19/21) Accurately ripped
 10   | (20/21) Accurately ripped
 11   | (21/21) Accurately ripped
 12   | (21/21) Accurately ripped
 13   | (21/21) Accurately ripped
 14   | (21/21) Accurately ripped
 15   | (21/21) Accurately ripped
 16   | (21/21) Accurately ripped
 17   | (21/21) Accurately ripped
 18   | (21/21) Accurately ripped
 19   | (21/21) Accurately ripped
 20   | (20/21) Accurately ripped
 21   | (21/21) Accurately ripped
 22   | (21/21) Accurately ripped
 23   | (21/21) Accurately ripped
 24   | (21/21) Accurately ripped
 25   | (21/21) Accurately ripped
[AccurateRip ID: 003d7757-0457d244-60107c19] found.
Track   [  CRC   |   V2   ] Status
 01     [e90aab24|0364bc09] (03+07/15) Accurately ripped
 02     [6cbf7870|0e98993c] (02+07/14) Accurately ripped
 03     [da003aa1|232750ae] (02+07/14) Accurately ripped
 04     [226b0fa6|26f3aa3d] (02+07/14) Accurately ripped
 05     [037c4654|a438ffd7] (03+07/15) Accurately ripped
 06     [d7bed866|1cf8059d] (02+07/14) Accurately ripped
 07     [d0f6bd35|339ac4b0] (02+07/14) Accurately ripped
 08     [c4a08909|47bf3b3b] (02+07/14) Accurately ripped
 09     [d5270808|4890f6a0] (00+07/12) Accurately ripped
 10     [599ab03c|47dbdbfa] (02+07/14) Accurately ripped
 11     [b757f645|6e1a66d4] (02+07/14) Accurately ripped
 12     [b0c3d7d6|9b085318] (02+07/14) Accurately ripped
 13     [37a10b0c|c86cc931] (02+07/14) Accurately ripped
 14     [8669cc78|ae1e4b1f] (02+06/13) Accurately ripped
 15     [2f9b2ebf|2b10f5e3] (02+07/14) Accurately ripped
 16     [1b5803a7|16536ab9] (02+07/14) Accurately ripped
 17     [19b259bd|4546a477] (03+07/15) Accurately ripped
 18     [3f8b7ab2|68dddbab] (02+07/14) Accurately ripped
 19     [fc328eab|d1aca564] (02+07/14) Accurately ripped
 20     [e3808120|86700293] (02+07/14) Accurately ripped
 21     [d7ecaa5e|750e208d] (02+07/14) Accurately ripped
 22     [9a1fc8b7|3dc35537] (02+07/14) Accurately ripped
 23     [9ea7ee2d|d1ef6664] (03+07/15) Accurately ripped
 24     [728766d3|4c769e82] (02+06/13) Accurately ripped
 25     [6a718db8|0b43d66a] (03+07/15) Accurately ripped
Offsetted by 1691:
 01     [a3a253fe] (05/15) Accurately ripped
 02     [448ca1c6] (05/14) Accurately ripped
 03     [56f08278] (05/14) Accurately ripped
 04     [90cae810] (05/14) Accurately ripped
 05     [a6148529] (05/15) Accurately ripped
 06     [2fdbf960] (05/14) Accurately ripped
 07     [817bc1ef] (05/14) Accurately ripped
 08     [17b1c106] (05/14) Accurately ripped
 09     [3630081a] (05/12) Accurately ripped
 10     [d7fd90b6] (05/14) Accurately ripped
 11     [00b90164] (05/14) Accurately ripped
 12     [993c10d8] (05/14) Accurately ripped
 13     [52e1c033] (05/14) Accurately ripped
 14     [3f0655d3] (05/13) Accurately ripped
 15     [7d2227e5] (05/14) Accurately ripped
 16     [bfe5cef7] (05/14) Accurately ripped
 17     [20e7589d] (05/15) Accurately ripped
 18     [1d54dd8c] (05/14) Accurately ripped
 19     [656eed28] (05/14) Accurately ripped
 20     [ffbdc092] (05/14) Accurately ripped
 21     [40b49951] (05/14) Accurately ripped
 22     [d8ec7ced] (05/14) Accurately ripped
 23     [f5cde5d7] (05/15) Accurately ripped
 24     [024ff26c] (05/13) Accurately ripped
 25     [43242cb5] (05/15) Accurately ripped
Track Peak [ CRC32  ] [W/O NULL] [  LOG   ]
 --  100,0 [3ADE96A0] [034B761C]   CRC32
 01   83,6 [26F3CA7F] [F6649D8A]
 02   79,9 [636C7461] [A0A00789]
 03   75,8 [DC0C5FA3] [E494BBCF]
 04   90,9 [04C05F96] [F95418C3]
 05  100,0 [EDCDB5AD] [C85CA66E]
 06   84,2 [CA223412] [4A967A56]
 07  100,0 [4DE91C97] [60F80C61]
 08   80,1 [78E2B271] [EE4733FF]
 09   96,3 [D674ECFC] [6E90E579]
 10  100,0 [82D3B007] [0DB611D9]
 11   78,4 [2DDD2B4E] [B84E746A]
 12   68,7 [C33DD55E] [E1454D00]
 13  100,0 [6AF670D4] [48546872]
 14  100,0 [70ABFE34] [C821BCAA]
 15   75,6 [EC11FAFC] [6E6F15DD]
 16   79,8 [0EA0A854] [BD2B8520]
 17  100,0 [4B65A514] [E17CB614]
 18   69,9 [399738A7] [21C8F320]
 19  100,0 [B904E2A7] [AFE5139B]
 20  100,0 [C7579E5A] [23A037A2]
 21   87,1 [F3DF6616] [F256257B]
 22   84,6 [2A008AB4] [DA445BF4]
 23  100,0 [5DF7CEFE] [8D4005B7]
 24   96,1 [54EB792F] [DD8F53AE]
 25   67,8 [3A70EB45] [7378BB3E]
Правила, инструкции, FAQ!!!
Торрент  Добавлен [13 дек 2020, 08:39] Скачать торрент Магнет ссылка
Скачать торрент
[ Размер 11.57 КБ / Просмотров 14 ]

Статус
Проверен 
 
Размер  268.6 МБ
Приватный: Нет (DHT включён)
.torrent скачан  0
 


     Отправить личное сообщение
   
Страница 1 из 1
Показать сообщения за:  Поле сортировки  
Начать новую тему Ответить на тему


Сейчас этот форум просматривают: нет зарегистрированных пользователей и гости: 0


Вы не можете начинать темы
Вы не можете отвечать на сообщения
Вы не можете редактировать свои сообщения
Вы не можете удалять свои сообщения
Вы не можете добавлять вложения

Перейти:  
cron