Начать новую тему Ответить на тему
Статистика раздачи
Размер: 440.03 МБ | Добавлен: 10 авг 2020, 04:14 | Скачали: 1
Сидеров: 10  [0 байт/сек]    Личеров: 2  [0 байт/сек]
Пред. тема | След. тема 

Автор
Сообщение

СообщениеДобавлено: 10 авг 2020, 04:14 

Ответить с цитатой 

#777VA - Blues Guitar Killers (Wolf Records)
Жанр: Blues
Носитель: STREAM
Страна-производитель диска (релиза): Austria
Год издания: 2006
Издатель (лейбл): Wolf Records
Номер по каталогу: 120.104 CD
Аудиокодек: FLAC (*.flac)
Тип рипа: tracks
Продолжительность: 69:54
Источник: собственная покупка по версии Vknish
Наличие сканов в содержимом раздачи: нет
Треклист:
01. Magic Slim - Spider in My Stew - 4:36
02. Eddy Clearwater - 2 X 9 - 4:04
03. Lurrie Bell - What Can A Poor Man Do - 4:50
04. Johnny B. Moore - Lookin' Good - 5:54
05. Vance Kelly - Foot Loose & Fancy Free - 6:14
06. Eddie Taylor Jr. - Worried About My Baby - 3:58
07. Freddie King - Stormy Monday Blues - 7:56
08. Jimmy Rogers - Chicago Bound - 2:45
09. John Primer - Smile In Your Face - 6:14
10. Michael Coleman - Mustang Sally - 6:12
11. Otis Rush - I Can't Quit You Baby - 2:57
12. Phil Guy - I've Been Gone - 5:53
13. Hubert Sumlin - What Have I Done - 4:25
14. U.P. Wilson - Crossroads - 3:38
Код:
-----------------------
DON'T MODIFY THIS FILE
-----------------------
PERFORMER: auCDtect Task Manager, ver. 1.6.0 RC1 build 1.6.0.1
Copyright (c) 2008-2010 y-soft. All rights reserved
[url=http://y-soft.org]http://y-soft.org[/url]
ANALYZER: auCDtect: CD records authenticity detector, version 0.8.2
Copyright (c) 2004 Oleg Berngardt. All rights reserved.
Copyright (c) 2004 Alexander Djourik. All rights reserved.
FILE: 14. Crossroads.flac
  Size: 24559846 Hash: 7882E1E6A09F154C27EF5757F6138DF9 Accuracy: -m0
  Conclusion: CDDA 100%
  Signature: CE28B7E70D8017D1E574778F9B1F218F2C636B35
FILE: 13. I`ve Been Gone.flac
  Size: 26459782 Hash: 60777C479327A9AD80B7E40D42ADFF94 Accuracy: -m0
  Conclusion: CDDA 100%
  Signature: 98C12274C410A8127B43FD1A233649EDF8EEBB5C
FILE: 12. What Have I Done.flac
  Size: 42774773 Hash: B1D3B303829F396D543AC2AECE935099 Accuracy: -m0
  Conclusion: CDDA 100%
  Signature: 961E43C10585B598349C008982D5FDAC3371B74E
FILE: 11. I Can`t Quit You Baby.flac
  Size: 19041818 Hash: FA6704AD311111FB950E3A30F0E4882B Accuracy: -m0
  Conclusion: CDDA 100%
  Signature: 95D281E5EC1BD41A113235AD9E860409490FCECC
FILE: 10. Mustang Sally.flac
  Size: 45264523 Hash: 6847158B3E2E1452EC376A4723B04FAE Accuracy: -m0
  Conclusion: CDDA 100%
  Signature: 5BFCC17FD5E074C4291947336E8594DF6B5F93A8
FILE: 09. Smile In Your Face.flac
  Size: 43506167 Hash: 6F73AABFE814D297FD9CC16CA9D8F49C Accuracy: -m0
  Conclusion: CDDA 100%
  Signature: 62DBB9CC426A3FA1FA4B70CE808621453A9738E8
FILE: 08. Chicago Bound.flac
  Size: 19236783 Hash: 7BB2378C99C8BBA44867FB3158060544 Accuracy: -m0
  Conclusion: CDDA 100%
  Signature: EC4AA8039A986F66BF3033A221E69CCC72132F5A
FILE: 07. Stormy Monday Blues.flac
  Size: 42321694 Hash: 2FEC8D82013855B3675E3FB954E63901 Accuracy: -m0
  Conclusion: CDDA 100%
  Signature: FC3E0E406B287289A2AE9108FBE681C063910004
FILE: 06. Worried About My Baby.flac
  Size: 24487716 Hash: 9F94ADF0E08161F1AFF0A7B4FE2BFC0D Accuracy: -m0
  Conclusion: CDDA 100%
  Signature: ECF86B4C18F957FA27B2103D3273792DD4DC7EDC
FILE: 05. Foot Loose & Fancy Free.flac
  Size: 41711937 Hash: E5DB4C049435CABEE10B36F52F36C87C Accuracy: -m0
  Conclusion: CDDA 99%
  Signature: B87D1BEBC039482BACDBC5386C39669E4C68DB06
FILE: 04. Lookin' Good.flac
  Size: 40293234 Hash: 17B868B9F5B893A6E79D33C46002F8EB Accuracy: -m0
  Conclusion: CDDA 100%
  Signature: EA7915BB3BC96E408F32FB1A7DB18F6ED49BEF71
FILE: 03. What Can A Poor Man Do.flac
  Size: 31582591 Hash: D6CE5DB93604109DC038FD7B96386816 Accuracy: -m0
  Conclusion: CDDA 100%
  Signature: 1418A75AC91436E8F12DB0AC7F2A42F81B5547C8
FILE: 02. 2 x 9.flac
  Size: 28795090 Hash: 71E8D446BD9EE90935A786A1F54CE0A2 Accuracy: -m0
  Conclusion: CDDA 100%
  Signature: 22EDC6DD1DC438632CFD7F78FC874DBF6C3709E4
FILE: 01. Spider In My Stew.flac
  Size: 31444633 Hash: 745FCB102185A2CDC1773D39FE5EABBF Accuracy: -m0
  Conclusion: CDDA 100%
  Signature: C962A76126C6C593F2F52E7845324ECBAA797C45
Код:
foobar2000 1.3.17 / Dynamic Range Meter 1.1.1
log date: 2020-06-07 22:52:49
--------------------------------------------------------------------------------
Analyzed: Eddie Clearwater / Blues Guitar Killers (1)
          Eddie Taylor Jr. / Blues Guitar Killers (2)
          Freddie King / Blues Guitar Killers (3)
          Hubert Sumlin / Blues Guitar Killers (4)
          Jimmy Rogers / Blues Guitar Killers (5)
          John Primer / Blues Guitar Killers (6)
          Johnny B. Moore / Blues Guitar Killers (7)
          Lurrie Bell / Blues Guitar Killers (8)
          Magic Slim / Blues Guitar Killers (9)
          Michael Coleman / Blues Guitar Killers (10)
          Otis Rush / Blues Guitar Killers (11)
          Phil Guy / Blues Guitar Killers (12)
          u.p.Wilson / Blues Guitar Killers (13)
          Vance Kelly / Blues Guitar Killers (14)
--------------------------------------------------------------------------------
DR         Peak         RMS     Duration Track
--------------------------------------------------------------------------------
DR8       -2.00 dB   -11.59 dB      4:05 02-2 x 9
DR8       -2.00 dB   -10.91 dB      3:58 06-Worried About My Baby
DR10       0.00 dB   -15.23 dB      7:57 07-Stormy Monday Blues
DR10       0.00 dB   -12.21 dB      4:26 13-I`ve Been Gone
DR11       0.00 dB   -12.36 dB      2:45 08-Chicago Bound
DR12       0.00 dB   -13.95 dB      6:15 09-Smile In Your Face
DR10       0.00 dB   -12.31 dB      5:55 04-Lookin' Good
DR13       0.00 dB   -14.76 dB      4:51 03-What Can A Poor Man Do
DR12       0.00 dB   -13.45 dB      4:37 01-Spider In My Stew
DR11       0.00 dB   -12.13 dB      6:13 10-Mustang Sally
DR7        0.00 dB    -9.09 dB      2:58 11-I Can`t Quit You Baby
DR8        0.00 dB    -9.52 dB      5:54 12-What Have I Done
DR8        0.00 dB    -9.38 dB      3:39 14-Crossroads
DR8       -2.92 dB   -12.93 dB      6:14 05-Foot Loose & Fancy Free
--------------------------------------------------------------------------------
Number of tracks:  14
Official DR value: DR10
Samplerate:        44100 Hz
Channels:          2
Bits per sample:   16
Bitrate:           890 kbps
Codec:             FLAC
================================================================================
Правила, инструкции, FAQ!!!
Торрент  Добавлен [10 авг 2020, 04:14] Скачать торрент Магнет ссылка
Скачать торрент
[ Размер 18.55 КБ / Просмотров 6 ]

Статус
Проверен 
 
Размер  440.03 МБ
Приватный: Нет (DHT включён)
.torrent скачан  1
 


     Отправить личное сообщение
   
Страница 1 из 1
Показать сообщения за:  Поле сортировки  
Начать новую тему Ответить на тему


Сейчас этот форум просматривают: нет зарегистрированных пользователей и гости: 0


Вы не можете начинать темы
Вы не можете отвечать на сообщения
Вы не можете редактировать свои сообщения
Вы не можете удалять свои сообщения
Вы не можете добавлять вложения

Перейти:  
cron