Начать новую тему Ответить на тему
Статистика раздачи
Размер: 472.33 МБ | Добавлен: 26 мар 2019, 19:16 | Скачали: 0
Сидеров: 0  [0 байт/сек]    Личеров: 0  [0 байт/сек]
Пред. тема | След. тема 

Автор
Сообщение

СообщениеДобавлено: 26 мар 2019, 19:16 

Ответить с цитатой 

Richard Manuel / Wispering Pines: Live at the Getaway, Saugerties, N.Y.
Жанр: Blue-Eyed Soul
Носитель: CD
Страна-производитель диска (релиза): Japan
Год издания: 2002
Издатель (лейбл): Dreamsville Records
Номер по каталогу: YDCD-0082
Страна исполнителя (группы): USA
Аудиокодек: FLAC (*.flac)
Тип рипа: tracks+.cue
Битрейт аудио: lossless
Продолжительность: 01:08:42
Источник (релизер): own collection
Наличие сканов в содержимом раздачи: да
01. Grow Too Old (Bobby Charles / Antone Domino / Dave Bartholomew) 03:08
02. Georgia on My Mind (Hoagy Carmichael / Stuart Gorrell) 02:35
03. Jazz, Instrumental #1 (Richard Manuel) 03:26
04. Across the Great Divide (Jaime Robbie Robertson) 03:24
05. You Don't Know Me (Cindy Walker / Eddy Arnold) 03:04
06. King Harvest (Has Surely Come) (Jaime Robbie Robertson) 04:14
07. I Shall Be Released (Bob Dylan) 03:54
08. The Shape I'm In (Jaime Robbie Robertson) 04:32
09. Piano, Instrumental #2 (Richard Manuel) 01:52
10. Miss Otis Regrets (Cole Porter) 04:25
11. Crazy Mama (J. J. Cale) 06:22
12. She Knows (James Griffin / Robb Royer) 03:38
13. Hard Times (Ray Charles) 02:58
14. Chest Fever (Jaime Robbie Robertson) 05:16
15. Whispering Pines (Richard Manuel / Jaime Robbie Robertson) 05:20
16. Tears of Rage (Bob Dylan / Richard Manuel) 04:19
17. Across the Great Divide [alternative version] (Jaime Robbie Robertson) 03:40
18. Georgia on My Mind [alternative version] (Hoagy Carmichael / Stuart Gorrell) 02:37
Код:
Exact Audio Copy V1.3 from 2. September 2016
EAC extraction logfile from 20. July 2018, 16:25
Richard Manuel / Wispering Pines
Used drive  : ASUS    BW-12D1S-U   Adapter: 1  ID: 1
Read mode               : Secure
Utilize accurate stream : Yes
Defeat audio cache      : Yes
Make use of C2 pointers : No
Read offset correction                      : 667
Overread into Lead-In and Lead-Out          : No
Fill up missing offset samples with silence : Yes
Delete leading and trailing silent blocks   : No
Null samples used in CRC calculations       : Yes
Used interface                              : Native Win32 interface for Win NT & 2000
Gap handling                                : Appended to previous track
Used output format              : User Defined Encoder
Selected bitrate                : 1024 kBit/s
Quality                         : High
Add ID3 tag                     : No
Command line compressor         : C:\Program Files (x86)\Exact Audio Copy\FLAC\FLAC.EXE
Additional command line options : -V -8 -T "Genre=%genre%" -T "Artist=%artist%" -T "Title=%title%" -T "Album=%albumtitle%" -T "Date=%year%" -T "Tracknumber=%tracknr%" -T "Comment=%comment%" %source%
TOC of the extracted CD
     Track |   Start  |  Length  | Start sector | End sector
    ---------------------------------------------------------
        1  |  0:00.00 |  3:07.70 |         0    |    14094
        2  |  3:07.70 |  2:35.22 |     14095    |    25741
        3  |  5:43.17 |  3:25.73 |     25742    |    41189
        4  |  9:09.15 |  3:24.27 |     41190    |    56516
        5  | 12:33.42 |  3:04.00 |     56517    |    70316
        6  | 15:37.42 |  4:13.58 |     70317    |    89349
        7  | 19:51.25 |  3:53.72 |     89350    |   106896
        8  | 23:45.22 |  4:32.08 |    106897    |   127304
        9  | 28:17.30 |  1:51.42 |    127305    |   135671
       10  | 30:08.72 |  4:24.38 |    135672    |   155509
       11  | 34:33.35 |  6:22.32 |    155510    |   184191
       12  | 40:55.67 |  3:37.70 |    184192    |   200536
       13  | 44:33.62 |  2:57.38 |    200537    |   213849
       14  | 47:31.25 |  5:15.42 |    213850    |   237516
       15  | 52:46.67 |  5:19.40 |    237517    |   261481
       16  | 58:06.32 |  4:18.50 |    261482    |   280881
       17  | 62:25.07 |  3:40.00 |    280882    |   297381
       18  | 66:05.07 |  2:37.00 |    297382    |   309156
Track  1
     Filename E:\Torrents of Autumn\Manuel, Richard [2002] Whispering Pines~ Live at the Getaway Saugerties, N.Y. (Japanese release)\01. Grow Too Old.wav
     Pre-gap length  0:00:02.00
     Peak level 97.6 %
     Extraction speed 4.6 X
     Track quality 100.0 %
     Test CRC BC7596C0
     Copy CRC BC7596C0
     Accurately ripped (confidence 4)  [E5E494E3]  (AR v2)
     Copy OK
Track  2
     Filename E:\Torrents of Autumn\Manuel, Richard [2002] Whispering Pines~ Live at the Getaway Saugerties, N.Y. (Japanese release)\02. Georgia on My Mind.wav
     Peak level 97.6 %
     Extraction speed 4.8 X
     Track quality 100.0 %
     Test CRC B2A675B5
     Copy CRC B2A675B5
     Accurately ripped (confidence 4)  [D0FFAD07]  (AR v2)
     Copy OK
Track  3
     Filename E:\Torrents of Autumn\Manuel, Richard [2002] Whispering Pines~ Live at the Getaway Saugerties, N.Y. (Japanese release)\03. Jazz, Instrumental #1.wav
     Peak level 97.6 %
     Extraction speed 5.3 X
     Track quality 100.0 %
     Test CRC 3E182961
     Copy CRC 3E182961
     Accurately ripped (confidence 4)  [C533B951]  (AR v2)
     Copy OK
Track  4
     Filename E:\Torrents of Autumn\Manuel, Richard [2002] Whispering Pines~ Live at the Getaway Saugerties, N.Y. (Japanese release)\04. Across the Great Divide.wav
     Peak level 97.6 %
     Extraction speed 5.6 X
     Track quality 100.0 %
     Test CRC D23D3FC4
     Copy CRC D23D3FC4
     Accurately ripped (confidence 4)  [186D028D]  (AR v2)
     Copy OK
Track  5
     Filename E:\Torrents of Autumn\Manuel, Richard [2002] Whispering Pines~ Live at the Getaway Saugerties, N.Y. (Japanese release)\05. You Don't Know Me.wav
     Peak level 97.6 %
     Extraction speed 5.8 X
     Track quality 100.0 %
     Test CRC 799AE3F7
     Copy CRC 799AE3F7
     Accurately ripped (confidence 4)  [C37A75CE]  (AR v2)
     Copy OK
Track  6
     Filename E:\Torrents of Autumn\Manuel, Richard [2002] Whispering Pines~ Live at the Getaway Saugerties, N.Y. (Japanese release)\06. King Harvest (Has Surely Come).wav
     Peak level 97.6 %
     Extraction speed 6.3 X
     Track quality 100.0 %
     Test CRC AB3AA066
     Copy CRC AB3AA066
     Accurately ripped (confidence 4)  [221AC239]  (AR v2)
     Copy OK
Track  7
     Filename E:\Torrents of Autumn\Manuel, Richard [2002] Whispering Pines~ Live at the Getaway Saugerties, N.Y. (Japanese release)\07. I Shall Be Released.wav
     Peak level 97.6 %
     Extraction speed 6.6 X
     Track quality 100.0 %
     Test CRC DC41B45D
     Copy CRC DC41B45D
     Accurately ripped (confidence 4)  [64E01AEF]  (AR v2)
     Copy OK
Track  8
     Filename E:\Torrents of Autumn\Manuel, Richard [2002] Whispering Pines~ Live at the Getaway Saugerties, N.Y. (Japanese release)\08. The Shape I'm In.wav
     Pre-gap length  0:00:02.27
     Peak level 97.6 %
     Extraction speed 7.0 X
     Track quality 100.0 %
     Test CRC 799FE189
     Copy CRC 799FE189
     Accurately ripped (confidence 4)  [A5F79AC6]  (AR v2)
     Copy OK
Track  9
     Filename E:\Torrents of Autumn\Manuel, Richard [2002] Whispering Pines~ Live at the Getaway Saugerties, N.Y. (Japanese release)\09. Piano, Instrumental #2.wav
     Peak level 97.6 %
     Extraction speed 5.0 X
     Track quality 99.9 %
     Test CRC 5AD3CEE3
     Copy CRC 5AD3CEE3
     Accurately ripped (confidence 4)  [AADC4891]  (AR v2)
     Copy OK
Track 10
     Filename E:\Torrents of Autumn\Manuel, Richard [2002] Whispering Pines~ Live at the Getaway Saugerties, N.Y. (Japanese release)\10. Miss Otis Regrets.wav
     Peak level 97.6 %
     Extraction speed 7.4 X
     Track quality 100.0 %
     Test CRC FE90BF61
     Copy CRC FE90BF61
     Accurately ripped (confidence 4)  [4169F752]  (AR v2)
     Copy OK
Track 11
     Filename E:\Torrents of Autumn\Manuel, Richard [2002] Whispering Pines~ Live at the Getaway Saugerties, N.Y. (Japanese release)\11. Crazy Mama.wav
     Peak level 97.6 %
     Extraction speed 7.3 X
     Track quality 99.9 %
     Test CRC 51E5724A
     Copy CRC 51E5724A
     Accurately ripped (confidence 4)  [200A2855]  (AR v2)
     Copy OK
Track 12
     Filename E:\Torrents of Autumn\Manuel, Richard [2002] Whispering Pines~ Live at the Getaway Saugerties, N.Y. (Japanese release)\12. She Knows.wav
     Peak level 94.8 %
     Extraction speed 7.6 X
     Track quality 100.0 %
     Test CRC 0951007A
     Copy CRC 0951007A
     Accurately ripped (confidence 4)  [C476F866]  (AR v2)
     Copy OK
Track 13
     Filename E:\Torrents of Autumn\Manuel, Richard [2002] Whispering Pines~ Live at the Getaway Saugerties, N.Y. (Japanese release)\13. Hard Times.wav
     Peak level 97.6 %
     Extraction speed 7.5 X
     Track quality 100.0 %
     Test CRC A18820C0
     Copy CRC A18820C0
     Accurately ripped (confidence 4)  [5995B42A]  (AR v2)
     Copy OK
Track 14
     Filename E:\Torrents of Autumn\Manuel, Richard [2002] Whispering Pines~ Live at the Getaway Saugerties, N.Y. (Japanese release)\14. Chest Fever.wav
     Peak level 97.6 %
     Extraction speed 8.4 X
     Track quality 100.0 %
     Test CRC 35564CBF
     Copy CRC 35564CBF
     Accurately ripped (confidence 4)  [F3AA80D5]  (AR v2)
     Copy OK
Track 15
     Filename E:\Torrents of Autumn\Manuel, Richard [2002] Whispering Pines~ Live at the Getaway Saugerties, N.Y. (Japanese release)\15. Whispering Pines.wav
     Peak level 87.9 %
     Extraction speed 8.7 X
     Track quality 100.0 %
     Test CRC 4A091A86
     Copy CRC 4A091A86
     Accurately ripped (confidence 4)  [AAE1A58D]  (AR v2)
     Copy OK
Track 16
     Filename E:\Torrents of Autumn\Manuel, Richard [2002] Whispering Pines~ Live at the Getaway Saugerties, N.Y. (Japanese release)\16. Tears of Rage.wav
     Peak level 97.6 %
     Extraction speed 8.6 X
     Track quality 100.0 %
     Test CRC AE796947
     Copy CRC AE796947
     Accurately ripped (confidence 4)  [6C4F4EA6]  (AR v2)
     Copy OK
Track 17
     Filename E:\Torrents of Autumn\Manuel, Richard [2002] Whispering Pines~ Live at the Getaway Saugerties, N.Y. (Japanese release)\17. Across the Great Divide [alternative version].wav
     Pre-gap length  0:00:08.05
     Peak level 97.6 %
     Extraction speed 8.6 X
     Track quality 100.0 %
     Test CRC FCA97FCF
     Copy CRC FCA97FCF
     Accurately ripped (confidence 4)  [BB9C0B9A]  (AR v2)
     Copy OK
Track 18
     Filename E:\Torrents of Autumn\Manuel, Richard [2002] Whispering Pines~ Live at the Getaway Saugerties, N.Y. (Japanese release)\18. Georgia on My Mind [alternative version].wav
     Peak level 94.4 %
     Extraction speed 8.3 X
     Track quality 100.0 %
     Test CRC F9B506B0
     Copy CRC F9B506B0
     Accurately ripped (confidence 4)  [80948383]  (AR v2)
     Copy OK
All tracks accurately ripped
No errors occurred
End of status report
---- CUETools DB Plugin V2.1.6
[CTDB TOCID: nWdNvFqG3I7k2UUs00NheYCPXqM-] found
Submit result: nWdNvFqG3I7k2UUs00NheYCPXqM- has been confirmed
Track | CTDB Status
  1   | (5/5) Accurately ripped
  2   | (5/5) Accurately ripped
  3   | (5/5) Accurately ripped
  4   | (5/5) Accurately ripped
  5   | (5/5) Accurately ripped
  6   | (5/5) Accurately ripped
  7   | (5/5) Accurately ripped
  8   | (5/5) Accurately ripped
  9   | (5/5) Accurately ripped
 10   | (5/5) Accurately ripped
 11   | (5/5) Accurately ripped
 12   | (5/5) Accurately ripped
 13   | (5/5) Accurately ripped
 14   | (5/5) Accurately ripped
 15   | (5/5) Accurately ripped
 16   | (5/5) Accurately ripped
 17   | (5/5) Accurately ripped
 18   | (5/5) Accurately ripped
==== Log checksum 56068F6A053560EF25FCC47ED439911C4D125AB34C473BCD693DF1E44A5BCB53 ====
Код:
REM GENRE Folk
REM DATE 1985
REM DISCID 2E101A12
REM COMMENT "ExactAudioCopy v1.3"
PERFORMER "Richard Manuel"
TITLE "Wispering Pines"
REM COMPOSER ""
FILE "01. Grow Too Old.wav" WAVE
  TRACK 01 AUDIO
    TITLE "Grow Too Old"
    PERFORMER "Richard Manuel"
    REM COMPOSER "Bobby Charles / Antone Domino / Dave Bartholomew"
    INDEX 01 00:00:00
FILE "02. Georgia on My Mind.wav" WAVE
  TRACK 02 AUDIO
    TITLE "Georgia on My Mind"
    PERFORMER "Richard Manuel"
    REM COMPOSER "Hoagy Carmichael / Stuart Gorrell"
    INDEX 01 00:00:00
FILE "03. Jazz, Instrumental #1.wav" WAVE
  TRACK 03 AUDIO
    TITLE "Jazz, Instrumental #1"
    PERFORMER "Richard Manuel"
    REM COMPOSER "Richard Manuel"
    INDEX 01 00:00:00
FILE "04. Across the Great Divide.wav" WAVE
  TRACK 04 AUDIO
    TITLE "Across the Great Divide"
    PERFORMER "Richard Manuel"
    REM COMPOSER "Jaime Robbie Robertson"
    INDEX 01 00:00:00
FILE "05. You Don't Know Me.wav" WAVE
  TRACK 05 AUDIO
    TITLE "You Don't Know Me"
    PERFORMER "Richard Manuel"
    REM COMPOSER "Cindy Walker / Eddy Arnold"
    INDEX 01 00:00:00
FILE "06. King Harvest (Has Surely Come).wav" WAVE
  TRACK 06 AUDIO
    TITLE "King Harvest (Has Surely Come)"
    PERFORMER "Richard Manuel"
    REM COMPOSER "Jaime Robbie Robertson"
    INDEX 01 00:00:00
FILE "07. I Shall Be Released.wav" WAVE
  TRACK 07 AUDIO
    TITLE "I Shall Be Released"
    PERFORMER "Richard Manuel"
    REM COMPOSER "Bob Dylan"
    INDEX 01 00:00:00
  TRACK 08 AUDIO
    TITLE "The Shape I'm In"
    PERFORMER "Richard Manuel"
    REM COMPOSER "Jaime Robbie Robertson"
    INDEX 00 03:51:45
FILE "08. The Shape I'm In.wav" WAVE
    INDEX 01 00:00:00
FILE "09. Piano, Instrumental #2.wav" WAVE
  TRACK 09 AUDIO
    TITLE "Piano, Instrumental #2"
    PERFORMER "Richard Manuel"
    REM COMPOSER "Richard Manuel"
    INDEX 01 00:00:00
FILE "10. Miss Otis Regrets.wav" WAVE
  TRACK 10 AUDIO
    TITLE "Miss Otis Regrets"
    PERFORMER "Richard Manuel"
    REM COMPOSER "Cole Porter"
    INDEX 01 00:00:00
FILE "11. Crazy Mama.wav" WAVE
  TRACK 11 AUDIO
    TITLE "Crazy Mama"
    PERFORMER "Richard Manuel"
    REM COMPOSER "J. J. Cale"
    INDEX 01 00:00:00
FILE "12. She Knows.wav" WAVE
  TRACK 12 AUDIO
    TITLE "She Knows"
    PERFORMER "Richard Manuel"
    REM COMPOSER "James Griffin / Robb Royer"
    INDEX 01 00:00:00
FILE "13. Hard Times.wav" WAVE
  TRACK 13 AUDIO
    TITLE "Hard Times"
    PERFORMER "Richard Manuel"
    REM COMPOSER "Ray Charles"
    INDEX 01 00:00:00
FILE "14. Chest Fever.wav" WAVE
  TRACK 14 AUDIO
    TITLE "Chest Fever"
    PERFORMER "Richard Manuel"
    REM COMPOSER "Jaime Robbie Robertson"
    INDEX 01 00:00:00
FILE "15. Whispering Pines.wav" WAVE
  TRACK 15 AUDIO
    TITLE "Whispering Pines"
    PERFORMER "Richard Manuel"
    REM COMPOSER "Richard Manuel / Jaime Robbie Robertson"
    INDEX 01 00:00:00
FILE "16. Tears of Rage.wav" WAVE
  TRACK 16 AUDIO
    TITLE "Tears of Rage"
    PERFORMER "Richard Manuel"
    REM COMPOSER "Bob Dylan / Richard Manuel"
    INDEX 01 00:00:00
  TRACK 17 AUDIO
    TITLE "Across the Great Divide [alternative version]"
    PERFORMER "Richard Manuel"
    REM COMPOSER "Jaime Robbie Robertson"
    INDEX 00 04:10:45
FILE "17. Across the Great Divide [alternative version].wav" WAVE
    INDEX 01 00:00:00
FILE "18. Georgia on My Mind [alternative version].wav" WAVE
  TRACK 18 AUDIO
    TITLE "Georgia on My Mind [alternative version]"
    PERFORMER "Richard Manuel"
    REM COMPOSER "Hoagy Carmichael / Stuart Gorrell"
    INDEX 01 00:00:00
In a group remembered for their vocal talent, the late Richard Manuel was often seen as the lead singer. His is the first voice you hear on the Band’s legendary debut album, Music From Big Pink, a rich baritone so soulful and charged with pathos it is hard to believe it could come from the frail Canadian. His is also the last voice heard on that album, a lonesome, quavering falsetto on Bob Dylan’s “I Shall Be Released,” which raises the hair on the back of the listener’s neck. Sadly, Manuel hanged himself in a motel room in Florida on March 4, 1986.
Manuel, the son of a Stratford, Ontario, mechanic, developed his vocal ability as a youth in the Baptist church choir. He grew up listening to country music, eventually discovering R&B, which would become a huge influence. (His voice would garner frequent comparisons to Ray Charles.) Manuel was the fourth future member of the Band to join the Hawks. In 1961, Levon Helm was the drummer for the Hawks and Robbie Robertson was on bass. Soon, however, Robertson took over as lead guitarist and Rick Danko was added as the new bass player. When Stan Szelest left the group that year, Richard Manuel was brought in as the piano player.
Throughout the legendary career of the Band, Manuel was troubled by drug and alcohol problems. It was only a few years after the Band had reunited in the ’80s (without Robertson)—and during an endless tour of much smaller clubs than the group was accustomed to—that Manuel committed suicide. No other singer in the group was as admired, however. Even musical giants such as Eric Clapton (who has made no secret of his fascination with Manuel) were in awe of his vocal ability. Clapton would go on to record a tribute to Manuel, “Holy Mother,” on his 1986 album August. Ex-bandmate Robbie Robertson would also eulogize Manuel on his 1987 solo debut with “Fallen Angel.” Richard Manuel’s grave is at the Avondale cemetery in Stratford, Ontario. (Erik Hage, AllMusic)
Singer/songwriter/pianist Richard Manuel never actually made any formal solo recordings apart from his membership in the Band, but this posthumously released album presents a club date he played in Saugerties, NY, less than five months before he committed suicide on March 4, 1986. Manuel accompanies himself on piano, singing songs from the Band repertoire (“Across the Great Divide,” “King Harvest [Has Surely Come],” “I Shall Be Released,” “The Shape I’m In,” “Chest Fever”), including a couple (“Whispering Pines,” “Tears of Rage”) on which he has co-songwriting credits. He also demonstrates his major influences by performing music by and associated with Fats Domino (“Grow Too Old”) and Ray Charles (“Georgia on My Mind,” “You Don't Know Me,” “Hard Times”). And he plays a couple of piano instrumentals. He has friends in the audience who sometimes come up and join him, notably fellow Band member Rick Danko, who provides vocal and guitar support on several tracks, and guitarist Jim Weider, who was a member of later configurations of the Band. Manuel’s contributions to the Band tended to be overshadowed by other group members, but here, even shortly before his death, he makes a strong impression with his barrelhouse piano work and expressive vocals, emphasizing the loss to music that was soon to come. (William Ruhlmann, AllMusic)
A detailed review of this release by Peter Viney can be accessed here: http://theband.hiof.no/articles/richard_manuel_whispering_pines.html
Richard Manuel: vocal, piano
Rick Danko: vocal (7, 11, 16, 17); guitar (7, 16, 17)
Jim Weider: guitar (4, 5, 6, 11, 14)
Sredni Vollmer: harp (11, 14, 17)
Recorded live by Andy Robinson at the Getaway, Saugerties, N.Y., October 12, 1985
Правила, инструкции, FAQ!!!
Торрент  Добавлен [26 мар 2019, 19:16] Скачать торрент Магнет ссылка
Скачать торрент
[ Размер 20.95 КБ / Просмотров 0 ]

Статус
Проверен 
 
Размер  472.33 МБ
Приватный: Нет (DHT включён)
.torrent скачан  0
 


     Отправить личное сообщение
   
Страница 1 из 1
Показать сообщения за:  Поле сортировки  
Начать новую тему Ответить на тему


Сейчас этот форум просматривают: нет зарегистрированных пользователей и гости: 0


Вы не можете начинать темы
Вы не можете отвечать на сообщения
Вы не можете редактировать свои сообщения
Вы не можете удалять свои сообщения
Вы не можете добавлять вложения

Перейти:  
cron