Начать новую тему Ответить на тему
Статистика раздачи
Размер: 478.96 МБ | Добавлен: 16 авг 2020, 05:42 | Скачали: 2
Сидеров: 2  [0 байт/сек]    Личеров: 1  [0 байт/сек]
Пред. тема | След. тема 

Автор
Сообщение

СообщениеДобавлено: 16 авг 2020, 05:42 

Ответить с цитатой 

Tangerine Dream - Thief
#777Жанр: Berlin School, Krautrock, Kosmische Rock, Electronic, Electronica, Soundtrack
Носитель: MC
Год выпуска: 1981
Лейбл: Virgin AE460-403472
Страна-производитель: Франция
Аудио кодек: ALAC
Тип рипа: image+.cue
Формат записи: 24/48
Формат раздачи: 24/48
Продолжительность: 00:39:48
REM GENRE "Berlin School, Krautrock, Kosmische Rock, Electronic, Electronica, Soundtrack"
REM DATE "1981"
PERFORMER "Tangerine Dream"
TITLE "Thief"
REM COMMENT "From Cassette"
REM COUNTRY "France"
FILE "Tangerine Dream - Thief.m4a" WAVE
REM LABEL "Virgin"
REM LABELNUMBER "AE460-403472"
TRACK 01 AUDIO
TITLE "Beach Scene"
PERFORMER "Tangerine Dream"
INDEX 01 00:00:00
TRACK 02 AUDIO
TITLE "Doctor Destructo"
PERFORMER "Tangerine Dream"
INDEX 01 03:44:00
TRACK 03 AUDIO
TITLE "Diamond Diary"
PERFORMER "Tangerine Dream"
INDEX 01 07:05:00
TRACK 04 AUDIO
TITLE "Burning bar"
PERFORMER "Tangerine Dream"
INDEX 01 17:45:00
TRACK 05 AUDIO
TITLE "Beach Scene"
PERFORMER "Tangerine Dream"
INDEX 01 20:52:00
TRACK 06 AUDIO
TITLE "Scrap Yard"
PERFORMER "Tangerine Dream"
INDEX 01 27:34:00
TRACK 07 AUDIO
TITLE "Trap Feeling"
PERFORMER "Tangerine Dream"
INDEX 01 32:10:00
TRACK 08 AUDIO
TITLE "Metascore"
PERFORMER "Tangerine Dream"
INDEX 01 35:09:00
Треклист:
01-Beach Scene
02-Doctor Destructo
03-Diamond Diary
04-Burning bar
05-Beach Scene
06-Scrap Yard
07-Trap Feeling
08-Metascore
Источник оцифровки: автором раздачи
Код класса состояния MC: Ex
Устройство воспроизведения: Sharp RT-30
Предварительный усилитель: Yamaha A-500
АЦП: Lexicon Alpha
Kабелы: VITALCO Cable
Программа-оцифровщик: Audacity [Ubuntu]
Обработка: Без обработки





Все MC :::::: Все VHS
Правила, инструкции, FAQ!!!
Торрент  Добавлен [16 авг 2020, 05:42] Скачать торрент Магнет ссылка
Скачать торрент
[ Размер 38.15 КБ / Просмотров 7 ]

Статус
Проверен 
 
Размер  478.96 МБ
Приватный: Нет (DHT включён)
.torrent скачан  2
 


     Отправить личное сообщение
   
Страница 1 из 1
Показать сообщения за:  Поле сортировки  
Начать новую тему Ответить на тему


Сейчас этот форум просматривают: нет зарегистрированных пользователей и гости: 0


Вы не можете начинать темы
Вы не можете отвечать на сообщения
Вы не можете редактировать свои сообщения
Вы не можете удалять свои сообщения
Вы не можете добавлять вложения

Перейти:  
cron