Начать новую тему Ответить на тему
Статистика раздачи
Размер: 40.92 ГБ | Добавлен: 05 июн 2020, 22:53 | Скачали: 0
Сидеров: 0  [0 байт/сек]    Личеров: 0  [0 байт/сек]
Пред. тема | След. тема 

Автор
Сообщение

СообщениеДобавлено: 05 июн 2020, 22:53 

Ответить с цитатой 

Berg - Lulu - Marlis Pet
Год выпуска: 2017
Лейбл: Bel Air Classiques
Страна-производитель: Austria
Жанр: Opera
Продолжительность: 02:58:10
Язык: German
Субтитры: English, French, German, Japanese, Korean, Spanish
Режиссер/Хореограф: Dmitri Tcherniakov
Исполнители: Marlis Petersen (Lulu), Daniela Sindram (Gräfin Geschwitz), Rainer Trost (Der Maler/Ein Neger), Bo Skovhus (Dr. Schön/Jack the Ripper),
Matthias Klink (Alwa), Pavlo Hunka (Schigolch), Christoph Stephinger (Der Theaterdirektor)
Bayerisches Staatsorchester, Kirill Petrenko, Dmitri Tcherniakov
Треклист: Berg - Lulu
Описание: Lulu, Alban Berg’s hauntingly mysterious opera in a new production by Dmitri Tcherniakov, has been one of the major events of the 2015 Bayerische Staatsoper season : an ideal setting for conductor Kirill Petrenko first-ever DVD recording !
A sensuous and impenetrable opera, Berg’s masterpiece depicts the burning and sometimes bestial intensity of human relationships through the figure of Lulu, the true femme fatale, bearer of an enigma that haunts us way beyond the end of the opera.
Venenous, sibylline, deathly for who approaches her, the dangerous Lulu destroys the established and bourgeois order she evolves in, carrying away with her all certainty, just like the audacious and demanding musical language Berg invented to give form to this unreachable character. Frank Wedekind’s work proved indeed to be an extremely fertile ground for the dodecaphonic composer’s imagination, and gave birth to one of the most singular and ambitious work of art of the twentieth century.
With the privilege of a dream cast, gathering Berg’s best interprets, this new production of Lulu is conducted by Kirill Petrenko, and staged by Dmitri Tcherniakov. A visionary genius considered as the contemporary stage ‘enfant terrible’, it is with a shattering realism that he directs those characters, hostages to their own passions and darkest fantasies, and reveals the complexity of this great human and social tragedy.
Marlis Petersen is Lulu, a role she was then singing for the ninth time, and which awarded her, for this production, the title of ‘singer of the year’ by German magazine Opernwelt
Доп. информация: https://www.prestomusic.com/classical/products/8348009--berg-lulu#about
https://www.amazon.co.uk/Alban-Berg-Bayerische-Staatsoper-Blu-ray/dp/B074BQ2BQN
Качество видео: Blu-ray
Формат/Контейнер: BDMV
Видео кодек: H.264
Аудио кодек: PCM + DTS
Видео поток: Video: MPEG-4 AVC Video / 26996 kbps / 1080i / 29.970 fps / 16:9 / High Profile 4.1
Аудио поток #1: Audio: Undetermined / LPCM Audio / 2.0 / 48 kHz / 1536 kbps / 16-bit
Аудио поток #2: Audio: Undetermined / DTS-HD Master Audio / 5.1 / 48 kHz / 2009 kbps / 16-bit (DTS Core: 5.1 / 48 kHz / 1509 kbps / 16-bit)




Disc Title: Berg - Lulu - Marlis Pet, Bayerisches Staatsorchester, Kirill Petrenko, Dmitri Tcherniakov - 2017
Disc Size: 43,939,516,011 bytes
Protection: AACS
BD-Java: No
BDInfo: 0.7.1
Notes:
BDINFO HOME:
Cinema Squid
http://www.cinemasquid.com/blu-ray/tools/bdinfo
INCLUDES FORUMS REPORT FOR:
AVS Forum Blu-ray Audio and Video Specifications Thread
http://www.avsforum.com/avs-vb/showthread.php?t=1155731
********************
PLAYLIST: 00005.MPLS
********************
<--- BEGIN FORUMS PASTE --->Код:
Код:
                                                                                Total   Video
Title                                                           Codec   Length  Movie Size      Disc Size       Bitrate Bitrate Main Audio Track                          Secondary Audio Track
-----                                                           ------  ------- --------------  --------------  ------- ------- ------------------                        ---------------------
00005.MPLS                                                      AVC     2:58:10 43,572,731,904  43,939,516,011  32.61   27.00   LPCM 2.0 1536Kbps (48kHz/16-bit)          DTS-HD Master 5.1 2009Kbps (48kHz/16-bit)

Код:
Код:
DISC INFO:
Disc Title:     Berg - Lulu - Marlis Pet, Bayerisches Staatsorchester, Kirill Petrenko, Dmitri Tcherniakov - 2017
Disc Size:      43,939,516,011 bytes
Protection:     AACS
BD-Java:        No
BDInfo:         0.7.1
PLAYLIST REPORT:
Name:                   00005.MPLS
Length:                 2:58:10.012 (h:m:s.ms)
Size:                   43,572,731,904 bytes
Total Bitrate:          32.61 Mbps
VIDEO:
Codec                   Bitrate             Description
-----                   -------             -----------
MPEG-4 AVC Video        26996 kbps          1080i / 29.970 fps / 16:9 / High Profile 4.1
AUDIO:
Codec                           Language        Bitrate         Description
-----                           --------        -------         -----------
LPCM Audio                      Undetermined    1536 kbps       2.0 / 48 kHz / 1536 kbps / 16-bit
DTS-HD Master Audio             Undetermined    2009 kbps       5.1 / 48 kHz / 2009 kbps / 16-bit (DTS Core: 5.1 / 48 kHz / 1509 kbps / 16-bit)
SUBTITLES:
Codec                           Language        Bitrate         Description
-----                           --------        -------         -----------
Presentation Graphics           French          24.969 kbps
Presentation Graphics           English         31.388 kbps
Presentation Graphics           German          32.054 kbps
Presentation Graphics           Spanish         28.688 kbps
Presentation Graphics           Korean          22.437 kbps
Presentation Graphics           Japanese        24.121 kbps
FILES:
Name            Time In         Length          Size            Total Bitrate
----            -------         ------          ----            -------------
00016.M2TS      0:00:00.000     2:58:10.012     43,572,731,904  32,608
CHAPTERS:
Number          Time In         Length          Avg Video Rate  Max 1-Sec Rate  Max 1-Sec Time  Max 5-Sec Rate  Max 5-Sec Time  Max 10Sec Rate  Max 10Sec Time  Avg Frame Size  Max Frame Size  Max Frame Time
------          -------         ------          --------------  --------------  --------------  --------------  --------------  --------------  --------------  --------------  --------------  --------------
1               0:00:00.000     0:01:37.030     28,571 kbps     36,514 kbps     00:00:29.796    35,468 kbps     00:00:25.225    33,443 kbps     00:00:20.787    119,125 bytes   344,601 bytes   00:00:27.027
2               0:01:37.030     0:04:31.938     28,744 kbps     37,232 kbps     00:04:40.146    35,858 kbps     00:04:36.309    34,484 kbps     00:04:32.905    119,886 bytes   300,464 bytes   00:04:37.777
3               0:06:08.968     0:05:36.969     26,523 kbps     37,528 kbps     00:11:33.592    31,382 kbps     00:07:52.271    30,243 kbps     00:10:43.876    110,621 bytes   280,768 bytes   00:11:32.725
4               0:11:45.938     0:09:18.958     24,220 kbps     37,165 kbps     00:11:56.182    33,970 kbps     00:14:30.502    31,710 kbps     00:14:28.100    101,019 bytes   338,352 bytes   00:13:44.857
5               0:21:04.896     0:03:12.492     26,039 kbps     32,890 kbps     00:23:42.254    31,402 kbps     00:23:34.913    31,104 kbps     00:23:33.745    108,604 bytes   264,363 bytes   00:22:53.772
6               0:24:17.389     0:03:58.471     27,733 kbps     35,172 kbps     00:26:37.028    32,449 kbps     00:25:40.472    32,053 kbps     00:25:39.905    115,671 bytes   268,213 bytes   00:26:32.624
7               0:28:15.860     0:06:39.065     27,972 kbps     37,342 kbps     00:34:41.512    35,721 kbps     00:34:40.178    32,838 kbps     00:30:54.819    116,667 bytes   276,145 bytes   00:31:32.090
8               0:34:54.926     0:05:06.205     26,092 kbps     35,084 kbps     00:39:03.407    33,306 kbps     00:36:46.938    29,973 kbps     00:38:41.986    108,825 bytes   273,851 bytes   00:36:46.971
9               0:40:01.132     0:03:58.905     27,276 kbps     35,706 kbps     00:40:40.805    33,297 kbps     00:41:31.622    31,918 kbps     00:41:29.153    113,763 bytes   305,230 bytes   00:43:40.417
10              0:44:00.037     0:03:33.346     27,440 kbps     36,097 kbps     00:46:16.740    32,345 kbps     00:46:52.109    31,988 kbps     00:45:07.538    114,448 bytes   287,856 bytes   00:47:10.060
11              0:47:33.383     0:03:39.886     26,039 kbps     36,596 kbps     00:49:48.986    34,231 kbps     00:50:45.942    33,769 kbps     00:49:40.177    108,606 bytes   317,909 bytes   00:49:49.786
12              0:51:13.270     0:04:38.745     26,867 kbps     34,248 kbps     00:55:37.067    31,954 kbps     00:55:33.229    30,572 kbps     00:55:28.224    112,058 bytes   264,583 bytes   00:53:40.483
13              0:55:52.015     0:07:46.265     26,791 kbps     36,133 kbps     01:00:32.996    34,305 kbps     01:00:40.870    32,844 kbps     01:00:40.870    111,741 bytes   437,024 bytes   01:03:26.736
14              1:03:38.281     0:05:11.511     25,271 kbps     34,438 kbps     01:04:43.679    33,521 kbps     01:04:39.876    30,006 kbps     01:04:37.139    105,402 bytes   270,038 bytes   01:06:29.986
15              1:08:49.792     0:05:22.388     28,632 kbps     33,694 kbps     01:09:42.244    33,128 kbps     01:09:39.708    31,943 kbps     01:09:38.974    119,418 bytes   291,329 bytes   01:12:17.132
16              1:14:12.181     0:06:18.311     29,345 kbps     37,110 kbps     01:15:34.396    36,070 kbps     01:15:30.392    34,521 kbps     01:17:59.107    122,393 bytes   310,223 bytes   01:18:30.072
17              1:20:30.492     0:03:46.492     29,583 kbps     36,310 kbps     01:22:32.447    34,899 kbps     01:21:19.274    34,361 kbps     01:21:18.039    123,386 bytes   305,745 bytes   01:23:05.814
18              1:24:16.985     0:05:58.691     27,839 kbps     36,822 kbps     01:24:35.804    32,902 kbps     01:25:14.909    31,805 kbps     01:24:46.314    116,113 bytes   312,106 bytes   01:26:22.610
19              1:30:15.676     0:02:43.563     26,551 kbps     37,613 kbps     01:31:39.026    34,734 kbps     01:31:36.023    33,613 kbps     01:32:20.268    110,741 bytes   274,233 bytes   01:32:22.970
20              1:32:59.240     0:05:20.353     27,032 kbps     33,243 kbps     01:36:56.477    31,400 kbps     01:37:48.829    30,271 kbps     01:36:21.976    112,748 bytes   270,527 bytes   01:37:17.565
21              1:38:19.593     0:05:53.386     26,991 kbps     35,701 kbps     01:42:05.586    34,532 kbps     01:42:02.116    31,156 kbps     01:42:00.948    112,573 bytes   277,624 bytes   01:42:02.216
22              1:44:12.980     0:08:31.410     26,947 kbps     34,979 kbps     01:50:30.323    31,769 kbps     01:51:00.353    30,779 kbps     01:45:21.548    112,390 bytes   296,678 bytes   01:51:04.891
23              1:52:44.390     0:04:43.916     26,478 kbps     36,327 kbps     01:57:08.187    31,795 kbps     01:57:06.786    31,683 kbps     01:56:06.826    110,434 bytes   290,213 bytes   01:53:19.292
24              1:57:28.307     0:09:53.025     26,184 kbps     37,394 kbps     01:58:10.149    36,136 kbps     01:58:06.145    34,108 kbps     01:58:01.107    109,211 bytes   319,910 bytes   01:58:10.616
25              2:07:21.333     0:01:58.318     26,830 kbps     34,172 kbps     02:07:28.574    32,395 kbps     02:07:28.474    31,780 kbps     02:07:28.574    111,905 bytes   275,204 bytes   02:07:45.290
26              2:09:19.651     0:03:44.524     24,204 kbps     32,972 kbps     02:12:35.314    31,922 kbps     02:12:32.878    31,428 kbps     02:12:27.906    100,951 bytes   282,922 bytes   02:12:26.405
27              2:13:04.176     0:03:24.804     25,953 kbps     34,524 kbps     02:16:09.027    31,340 kbps     02:16:06.424    28,838 kbps     02:16:01.586    108,245 bytes   270,498 bytes   02:13:52.991
28              2:16:28.980     0:02:54.841     27,013 kbps     33,999 kbps     02:16:36.955    32,421 kbps     02:17:09.721    31,498 kbps     02:16:31.850    112,667 bytes   297,714 bytes   02:17:06.418
29              2:19:23.822     0:02:34.354     26,807 kbps     33,717 kbps     02:21:55.306    31,174 kbps     02:19:59.624    29,503 kbps     02:20:34.025    111,808 bytes   288,158 bytes   02:21:56.174
30              2:21:58.176     0:02:50.103     27,174 kbps     35,342 kbps     02:23:14.786    33,272 kbps     02:23:14.752    30,860 kbps     02:23:10.949    113,336 bytes   285,788 bytes   02:23:15.186
31              2:24:48.279     0:02:41.327     29,607 kbps     34,444 kbps     02:26:03.387    32,665 kbps     02:25:27.752    32,301 kbps     02:27:19.463    123,486 bytes   272,124 bytes   02:26:04.188
32              2:27:29.607     0:04:30.870     28,137 kbps     37,135 kbps     02:28:11.349    35,489 kbps     02:28:07.345    33,656 kbps     02:27:29.740    117,353 bytes   346,399 bytes   02:27:29.774
33              2:32:00.478     0:05:33.499     27,569 kbps     36,272 kbps     02:36:05.155    32,364 kbps     02:34:43.907    31,669 kbps     02:34:35.866    114,986 bytes   299,228 bytes   02:37:07.418
34              2:37:33.977     0:03:35.248     27,698 kbps     34,619 kbps     02:38:58.228    31,714 kbps     02:38:54.224    30,714 kbps     02:40:40.063    115,523 bytes   283,437 bytes   02:41:01.885
35              2:41:09.226     0:02:20.006     26,018 kbps     32,585 kbps     02:41:37.154    31,253 kbps     02:42:55.832    30,299 kbps     02:42:13.790    108,517 bytes   301,264 bytes   02:41:33.850
36              2:43:29.232     0:05:11.744     25,815 kbps     32,936 kbps     02:45:07.364    30,046 kbps     02:44:07.103    29,547 kbps     02:45:12.702    107,671 bytes   303,945 bytes   02:46:38.421
37              2:48:40.977     0:03:32.545     25,109 kbps     41,435 kbps     02:49:49.445    35,922 kbps     02:49:45.508    30,874 kbps     02:49:40.503    104,726 bytes   278,264 bytes   02:50:55.378
38              2:52:13.523     0:05:56.489     29,222 kbps     37,017 kbps     02:57:11.387    36,028 kbps     02:57:30.606    35,907 kbps     02:57:25.468    121,890 bytes   361,306 bytes   02:57:10.019
STREAM DIAGNOSTICS:
File            PID             Type            Codec           Language                Seconds                 Bitrate                 Bytes           Packets
----            ---             ----            -----           --------                --------------          --------------          -------------   -----
00016.M2TS      4113 (0x1011)   0x1B            AVC                                     10689.879               26,996                  36,072,844,052  196,234,708
00016.M2TS      4352 (0x1100)   0x80            LPCM            und (Undetermined)      10689.879               1,542                   2,061,034,892   12,828,018
00016.M2TS      4353 (0x1101)   0x86            DTS-HD MA       und (Undetermined)      10689.879               2,009                   2,684,207,884   16,270,673
00016.M2TS      4608 (0x1200)   0x90            PGS             fra (French)            10689.879               25                      33,365,381      191,473
00016.M2TS      4609 (0x1201)   0x90            PGS             eng (English)           10689.879               31                      41,941,870      238,096
00016.M2TS      4610 (0x1202)   0x90            PGS             deu (German)            10689.879               32                      42,832,435      243,104
00016.M2TS      4611 (0x1203)   0x90            PGS             spa (Spanish)           10689.879               29                      38,334,050      218,461
00016.M2TS      4612 (0x1204)   0x90            PGS             kor (Korean)            10689.879               22                      29,980,848      173,490
00016.M2TS      4613 (0x1205)   0x90            PGS             jpn (Japanese)          10689.879               24                      32,231,553      185,157

<---- END FORUMS PASTE ---->
QUICK SUMMARY:
Disc Title: Berg - Lulu - Marlis Pet, Bayerisches Staatsorchester, Kirill Petrenko, Dmitri Tcherniakov - 2017
Disc Size: 43,939,516,011 bytes
Protection: AACS
BD-Java: No
Playlist: 00005.MPLS
Size: 43,572,731,904 bytes
Length: 2:58:10.012
Total Bitrate: 32.61 Mbps
Video: MPEG-4 AVC Video / 26996 kbps / 1080i / 29.970 fps / 16:9 / High Profile 4.1
Audio: Undetermined / LPCM Audio / 2.0 / 48 kHz / 1536 kbps / 16-bit
Audio: Undetermined / DTS-HD Master Audio / 5.1 / 48 kHz / 2009 kbps / 16-bit (DTS Core: 5.1 / 48 kHz / 1509 kbps / 16-bit)
Subtitle: French / 24.969 kbps
Subtitle: English / 31.388 kbps
Subtitle: German / 32.054 kbps
Subtitle: Spanish / 28.688 kbps
Subtitle: Korean / 22.437 kbps
Subtitle: Japanese / 24.121 kbps
********************
PLAYLIST: 00010.MPLS
********************
<--- BEGIN FORUMS PASTE --->Код:
Код:
                                                                                Total   Video
Title                                                           Codec   Length  Movie Size      Disc Size       Bitrate Bitrate Main Audio Track                          Secondary Audio Track
-----                                                           ------  ------- --------------  --------------  ------- ------- ------------------                        ---------------------
00010.MPLS                                                      AVC     2:58:10 43,572,731,904  43,939,516,011  32.61   27.00   LPCM 2.0 1536Kbps (48kHz/16-bit)          DTS-HD Master 5.1 2009Kbps (48kHz/16-bit)

Код:
Код:
DISC INFO:
Disc Title:     Berg - Lulu - Marlis Pet, Bayerisches Staatsorchester, Kirill Petrenko, Dmitri Tcherniakov - 2017
Disc Size:      43,939,516,011 bytes
Protection:     AACS
BD-Java:        No
BDInfo:         0.7.1
PLAYLIST REPORT:
Name:                   00010.MPLS
Length:                 2:58:10.012 (h:m:s.ms)
Size:                   43,572,731,904 bytes
Total Bitrate:          32.61 Mbps
VIDEO:
Codec                   Bitrate             Description
-----                   -------             -----------
MPEG-4 AVC Video        26996 kbps          1080i / 29.970 fps / 16:9 / High Profile 4.1
AUDIO:
Codec                           Language        Bitrate         Description
-----                           --------        -------         -----------
LPCM Audio                      Undetermined    1536 kbps       2.0 / 48 kHz / 1536 kbps / 16-bit
DTS-HD Master Audio             Undetermined    2009 kbps       5.1 / 48 kHz / 2009 kbps / 16-bit (DTS Core: 5.1 / 48 kHz / 1509 kbps / 16-bit)
SUBTITLES:
Codec                           Language        Bitrate         Description
-----                           --------        -------         -----------
Presentation Graphics           French          24.969 kbps
Presentation Graphics           English         31.388 kbps
Presentation Graphics           German          32.054 kbps
Presentation Graphics           Spanish         28.688 kbps
Presentation Graphics           Korean          22.437 kbps
Presentation Graphics           Japanese        24.121 kbps
FILES:
Name            Time In         Length          Size            Total Bitrate
----            -------         ------          ----            -------------
00016.M2TS      0:00:00.000     2:58:10.012     43,572,731,904  32,608
CHAPTERS:
Number          Time In         Length          Avg Video Rate  Max 1-Sec Rate  Max 1-Sec Time  Max 5-Sec Rate  Max 5-Sec Time  Max 10Sec Rate  Max 10Sec Time  Avg Frame Size  Max Frame Size  Max Frame Time
------          -------         ------          --------------  --------------  --------------  --------------  --------------  --------------  --------------  --------------  --------------  --------------
1               0:00:00.000     2:58:10.012     26,996 kbps     41,435 kbps     02:49:49.445    36,136 kbps     01:58:06.145    35,907 kbps     02:57:25.468    112,594 bytes   437,024 bytes   01:03:26.736
STREAM DIAGNOSTICS:
File            PID             Type            Codec           Language                Seconds                 Bitrate                 Bytes           Packets
----            ---             ----            -----           --------                --------------          --------------          -------------   -----
00016.M2TS      4113 (0x1011)   0x1B            AVC                                     10689.879               26,996                  36,072,844,052  196,234,708
00016.M2TS      4352 (0x1100)   0x80            LPCM            und (Undetermined)      10689.879               1,542                   2,061,034,892   12,828,018
00016.M2TS      4353 (0x1101)   0x86            DTS-HD MA       und (Undetermined)      10689.879               2,009                   2,684,207,884   16,270,673
00016.M2TS      4608 (0x1200)   0x90            PGS             fra (French)            10689.879               25                      33,365,381      191,473
00016.M2TS      4609 (0x1201)   0x90            PGS             eng (English)           10689.879               31                      41,941,870      238,096
00016.M2TS      4610 (0x1202)   0x90            PGS             deu (German)            10689.879               32                      42,832,435      243,104
00016.M2TS      4611 (0x1203)   0x90            PGS             spa (Spanish)           10689.879               29                      38,334,050      218,461
00016.M2TS      4612 (0x1204)   0x90            PGS             kor (Korean)            10689.879               22                      29,980,848      173,490
00016.M2TS      4613 (0x1205)   0x90            PGS             jpn (Japanese)          10689.879               24                      32,231,553      185,157

<---- END FORUMS PASTE ---->
QUICK SUMMARY:
Disc Title: Berg - Lulu - Marlis Pet, Bayerisches Staatsorchester, Kirill Petrenko, Dmitri Tcherniakov - 2017
Disc Size: 43,939,516,011 bytes
Protection: AACS
BD-Java: No
Playlist: 00010.MPLS
Size: 43,572,731,904 bytes
Length: 2:58:10.012
Total Bitrate: 32.61 Mbps
Video: MPEG-4 AVC Video / 26996 kbps / 1080i / 29.970 fps / 16:9 / High Profile 4.1
Audio: Undetermined / LPCM Audio / 2.0 / 48 kHz / 1536 kbps / 16-bit
Audio: Undetermined / DTS-HD Master Audio / 5.1 / 48 kHz / 2009 kbps / 16-bit (DTS Core: 5.1 / 48 kHz / 1509 kbps / 16-bit)
Subtitle: French / 24.969 kbps
Subtitle: English / 31.388 kbps
Subtitle: German / 32.054 kbps
Subtitle: Spanish / 28.688 kbps
Subtitle: Korean / 22.437 kbps
Subtitle: Japanese / 24.121 kbps
********************
PLAYLIST: 00006.MPLS
********************
<--- BEGIN FORUMS PASTE --->Код:
Код:
                                                                                Total   Video
Title                                                           Codec   Length  Movie Size      Disc Size       Bitrate Bitrate Main Audio Track                          Secondary Audio Track
-----                                                           ------  ------- --------------  --------------  ------- ------- ------------------                        ---------------------
00006.MPLS                                                      AVC     0:00:46 162,398,208     43,939,516,011  28.07   25.04   LPCM 2.0 1536Kbps (48kHz/16-bit)

Код:
Код:
DISC INFO:
Disc Title:     Berg - Lulu - Marlis Pet, Bayerisches Staatsorchester, Kirill Petrenko, Dmitri Tcherniakov - 2017
Disc Size:      43,939,516,011 bytes
Protection:     AACS
BD-Java:        No
BDInfo:         0.7.1
PLAYLIST REPORT:
Name:                   00006.MPLS
Length:                 0:00:46.279 (h:m:s.ms)
Size:                   162,398,208 bytes
Total Bitrate:          28.07 Mbps
VIDEO:
Codec                   Bitrate             Description
-----                   -------             -----------
MPEG-4 AVC Video        25038 kbps          1080i / 29.970 fps / 16:9 / High Profile 4.1
AUDIO:
Codec                           Language        Bitrate         Description
-----                           --------        -------         -----------
LPCM Audio                      English         1536 kbps       2.0 / 48 kHz / 1536 kbps / 16-bit
FILES:
Name            Time In         Length          Size            Total Bitrate
----            -------         ------          ----            -------------
00006.M2TS      0:00:00.000     0:00:46.279     162,398,208     28,073
CHAPTERS:
Number          Time In         Length          Avg Video Rate  Max 1-Sec Rate  Max 1-Sec Time  Max 5-Sec Rate  Max 5-Sec Time  Max 10Sec Rate  Max 10Sec Time  Avg Frame Size  Max Frame Size  Max Frame Time
------          -------         ------          --------------  --------------  --------------  --------------  --------------  --------------  --------------  --------------  --------------  --------------
1               0:00:00.000     0:00:46.279     25,038 kbps     37,523 kbps     00:00:30.930    32,086 kbps     00:00:26.926    30,022 kbps     00:00:06.473    104,431 bytes   705,594 bytes   00:00:10.643
STREAM DIAGNOSTICS:
File            PID             Type            Codec           Language                Seconds                 Bitrate                 Bytes           Packets
----            ---             ----            -----           --------                --------------          --------------          -------------   -----
00006.M2TS      4113 (0x1011)   0x1B            AVC                                     46.179                  25,093                  144,845,653     788,714
00006.M2TS      4352 (0x1100)   0x80            LPCM            eng (English)           46.179                  1,546                   8,922,784       55,536

<---- END FORUMS PASTE ---->
QUICK SUMMARY:
Disc Title: Berg - Lulu - Marlis Pet, Bayerisches Staatsorchester, Kirill Petrenko, Dmitri Tcherniakov - 2017
Disc Size: 43,939,516,011 bytes
Protection: AACS
BD-Java: No
Playlist: 00006.MPLS
Size: 162,398,208 bytes
Length: 0:00:46.279
Total Bitrate: 28.07 Mbps
Video: MPEG-4 AVC Video / 25038 kbps / 1080i / 29.970 fps / 16:9 / High Profile 4.1
Audio: English / LPCM Audio / 2.0 / 48 kHz / 1536 kbps / 16-bit
********************
PLAYLIST: 00007.MPLS
********************
<--- BEGIN FORUMS PASTE --->Код:
Код:
                                                                                Total   Video
Title                                                           Codec   Length  Movie Size      Disc Size       Bitrate Bitrate Main Audio Track                          Secondary Audio Track
-----                                                           ------  ------- --------------  --------------  ------- ------- ------------------                        ---------------------
00007.MPLS                                                      AVC     0:00:46 162,416,640     43,939,516,011  28.08   25.04   LPCM 2.0 1536Kbps (48kHz/16-bit)

Код:
Код:
DISC INFO:
Disc Title:     Berg - Lulu - Marlis Pet, Bayerisches Staatsorchester, Kirill Petrenko, Dmitri Tcherniakov - 2017
Disc Size:      43,939,516,011 bytes
Protection:     AACS
BD-Java:        No
BDInfo:         0.7.1
PLAYLIST REPORT:
Name:                   00007.MPLS
Length:                 0:00:46.279 (h:m:s.ms)
Size:                   162,416,640 bytes
Total Bitrate:          28.08 Mbps
VIDEO:
Codec                   Bitrate             Description
-----                   -------             -----------
MPEG-4 AVC Video        25043 kbps          1080i / 29.970 fps / 16:9 / High Profile 4.1
AUDIO:
Codec                           Language        Bitrate         Description
-----                           --------        -------         -----------
LPCM Audio                      English         1536 kbps       2.0 / 48 kHz / 1536 kbps / 16-bit
FILES:
Name            Time In         Length          Size            Total Bitrate
----            -------         ------          ----            -------------
00007.M2TS      0:00:00.000     0:00:46.279     162,416,640     28,076
CHAPTERS:
Number          Time In         Length          Avg Video Rate  Max 1-Sec Rate  Max 1-Sec Time  Max 5-Sec Rate  Max 5-Sec Time  Max 10Sec Rate  Max 10Sec Time  Avg Frame Size  Max Frame Size  Max Frame Time
------          -------         ------          --------------  --------------  --------------  --------------  --------------  --------------  --------------  --------------  --------------  --------------
1               0:00:00.000     0:00:46.279     25,043 kbps     36,264 kbps     00:00:30.930    31,000 kbps     00:00:26.926    29,777 kbps     00:00:06.473    104,449 bytes   706,973 bytes   00:00:12.579
STREAM DIAGNOSTICS:
File            PID             Type            Codec           Language                Seconds                 Bitrate                 Bytes           Packets
----            ---             ----            -----           --------                --------------          --------------          -------------   -----
00007.M2TS      4113 (0x1011)   0x1B            AVC                                     46.179                  25,097                  144,870,281     788,837
00007.M2TS      4352 (0x1100)   0x80            LPCM            eng (English)           46.179                  1,546                   8,922,784       55,536

<---- END FORUMS PASTE ---->
QUICK SUMMARY:
Disc Title: Berg - Lulu - Marlis Pet, Bayerisches Staatsorchester, Kirill Petrenko, Dmitri Tcherniakov - 2017
Disc Size: 43,939,516,011 bytes
Protection: AACS
BD-Java: No
Playlist: 00007.MPLS
Size: 162,416,640 bytes
Length: 0:00:46.279
Total Bitrate: 28.08 Mbps
Video: MPEG-4 AVC Video / 25043 kbps / 1080i / 29.970 fps / 16:9 / High Profile 4.1
Audio: English / LPCM Audio / 2.0 / 48 kHz / 1536 kbps / 16-bit
Правила, инструкции, FAQ!!!
Торрент  Добавлен [05 июн 2020, 22:53] Скачать торрент Магнет ссылка
Скачать торрент
[ Размер 54.32 КБ / Просмотров 3 ]

Статус
Проверен 
 
Размер  40.92 ГБ
Приватный: Нет (DHT включён)
.torrent скачан  0
 


     Отправить личное сообщение
   
Страница 1 из 1
Показать сообщения за:  Поле сортировки  
Начать новую тему Ответить на тему


Сейчас этот форум просматривают: нет зарегистрированных пользователей и гости: 0


Вы не можете начинать темы
Вы не можете отвечать на сообщения
Вы не можете редактировать свои сообщения
Вы не можете удалять свои сообщения
Вы не можете добавлять вложения

Перейти:  
cron