Начать новую тему Ответить на тему
Статистика раздачи
Размер: 513.54 МБ | Добавлен: 26 мар 2019, 20:58 | Скачали: 1
Сидеров: 0  [0 байт/сек]    Личеров: 0  [0 байт/сек]
Пред. тема | След. тема 

Автор
Сообщение

СообщениеДобавлено: 26 мар 2019, 20:58 

Ответить с цитатой 

The Divine Comedy / Casanova (2CD Limited Edition)
Жанр: Baroque Pop
Носитель: CD
Страна-производитель диска (релиза): USA
Год издания: 1996
Издатель (лейбл): Red Ink
Номер по каталогу: WK36863
Страна исполнителя (группы): United Kingdom
Аудиокодек: FLAC (*.flac)
Тип рипа: tracks+.cue
Битрейт аудио: lossless
Продолжительность: 00:51:46 + 00:22:50
Источник (релизер): Собственный рип с фирменных дисков
Наличие сканов в содержимом раздачи: да
Треклист:
CD1:
01. Something For The Weekend
02. Becoming More Like Alfie
03. Middle-Class Heroes
04. In & Out In Paris & London
05. Charge
06. Songs Of Love
07. The Frog Princess
08. A Woman Of The World
09. Through A Long & Sleepless Night
10. Theme From Casanova
11. The Dogs & The Horses
CD2:

01. Tonight We Fly
02. When the Lights Go Out All Over Europe
03. Your Daddy's Car
04. Lucy
05. Johnny Mathis' Feet (Live)
06. Something For The Weekend (Live)
Код:
Exact Audio Copy V1.3 from 2. September 2016
EAC extraction logfile from 6. November 2017, 18:36
The Divine Comedy / Casanova
Used drive  : Optiarc DVD RW AD-7280S   Adapter: 1  ID: 0
Read mode               : Secure
Utilize accurate stream : Yes
Defeat audio cache      : Yes
Make use of C2 pointers : No
Read offset correction                      : 48
Overread into Lead-In and Lead-Out          : No
Fill up missing offset samples with silence : Yes
Delete leading and trailing silent blocks   : No
Null samples used in CRC calculations       : Yes
Used interface                              : Native Win32 interface for Win NT & 2000
Gap handling                                : Appended to previous track
Used output format              : User Defined Encoder
Selected bitrate                : 768 kBit/s
Quality                         : High
Add ID3 tag                     : No
Command line compressor         : C:\Program Files (x86)\Exact Audio Copy\FLAC\FLAC.EXE
Additional command line options : -6 -V -T "ARTIST=%artist%" -T "TITLE=%title%" -T "ALBUM=%albumtitle%" -T "DATE=%year%" -T "TRACKNUMBER=%tracknr%" -T "GENRE=%genre%" -T "COMMENT=%comment%" -T "BAND=%albuminterpret%" -T "ALBUMARTIST=%albuminterpret%" -T "COMPOSER=%composer%" %haslyrics%--tag-from-file=LYRICS="%lyricsfile%"%haslyrics% -T "DISCNUMBER=%cdnumber%" -T "TOTALDISCS=%totalcds%" -T "TOTALTRACKS=%numtracks%" %hascover%--picture="%coverfile%"%hascover% %source% -o %dest%
TOC of the extracted CD
     Track |   Start  |  Length  | Start sector | End sector
    ---------------------------------------------------------
        1  |  0:00.00 |  4:19.42 |         0    |    19466
        2  |  4:19.42 |  2:59.15 |     19467    |    32906
        3  |  7:18.57 |  5:26.08 |     32907    |    57364
        4  | 12:44.65 |  3:27.47 |     57365    |    72936
        5  | 16:12.37 |  5:27.23 |     72937    |    97484
        6  | 21:39.60 |  3:26.15 |     97485    |   112949
        7  | 25:06.00 |  5:13.32 |    112950    |   136456
        8  | 30:19.32 |  4:12.23 |    136457    |   155379
        9  | 34:31.55 |  6:12.40 |    155380    |   183319
       10  | 40:44.20 |  5:51.72 |    183320    |   209716
       11  | 46:36.17 |  5:14.53 |    209717    |   233319
Track  1
     Filename C:\Users\yav\Desktop\The Divine Comedy\Albums\Rest-Of-World Releases\1996 - Casanova (USA, Red Ink, WK36863)\CD1\01. Something For The Weekend.wav
     Pre-gap length  0:00:02.00
     Peak level 99.5 %
     Extraction speed 2.6 X
     Track quality 100.0 %
     Test CRC C8AF2301
     Copy CRC C8AF2301
     Accurately ripped (confidence 4)  [3A66C299]  (AR v2)
     Copy OK
Track  2
     Filename C:\Users\yav\Desktop\The Divine Comedy\Albums\Rest-Of-World Releases\1996 - Casanova (USA, Red Ink, WK36863)\CD1\02. Becoming More Like Alfie.wav
     Pre-gap length  0:00:00.02
     Peak level 99.5 %
     Extraction speed 2.7 X
     Track quality 100.0 %
     Test CRC BF508A7C
     Copy CRC BF508A7C
     Accurately ripped (confidence 4)  [B5A16147]  (AR v2)
     Copy OK
Track  3
     Filename C:\Users\yav\Desktop\The Divine Comedy\Albums\Rest-Of-World Releases\1996 - Casanova (USA, Red Ink, WK36863)\CD1\03. Middle-Class Heroes.wav
     Pre-gap length  0:00:00.32
     Peak level 98.3 %
     Extraction speed 3.2 X
     Track quality 100.0 %
     Test CRC 7A8500F7
     Copy CRC 7A8500F7
     Accurately ripped (confidence 4)  [F305EB97]  (AR v2)
     Copy OK
Track  4
     Filename C:\Users\yav\Desktop\The Divine Comedy\Albums\Rest-Of-World Releases\1996 - Casanova (USA, Red Ink, WK36863)\CD1\04. In & Out In Paris & London.wav
     Pre-gap length  0:00:00.63
     Peak level 93.9 %
     Extraction speed 3.2 X
     Track quality 100.0 %
     Test CRC F1BEC7D2
     Copy CRC F1BEC7D2
     Accurately ripped (confidence 4)  [471A7518]  (AR v2)
     Copy OK
Track  5
     Filename C:\Users\yav\Desktop\The Divine Comedy\Albums\Rest-Of-World Releases\1996 - Casanova (USA, Red Ink, WK36863)\CD1\05. Charge.wav
     Pre-gap length  0:00:03.27
     Peak level 99.4 %
     Extraction speed 3.3 X
     Track quality 99.9 %
     Test CRC A29042F8
     Copy CRC A29042F8
     Accurately ripped (confidence 4)  [BA9EAFB0]  (AR v2)
     Copy OK
Track  6
     Filename C:\Users\yav\Desktop\The Divine Comedy\Albums\Rest-Of-World Releases\1996 - Casanova (USA, Red Ink, WK36863)\CD1\06. Songs Of Love.wav
     Pre-gap length  0:00:00.20
     Peak level 70.4 %
     Extraction speed 3.2 X
     Track quality 99.9 %
     Test CRC E35B3C44
     Copy CRC E35B3C44
     Accurately ripped (confidence 4)  [DB14D227]  (AR v2)
     Copy OK
Track  7
     Filename C:\Users\yav\Desktop\The Divine Comedy\Albums\Rest-Of-World Releases\1996 - Casanova (USA, Red Ink, WK36863)\CD1\07. The Frog Princess.wav
     Pre-gap length  0:00:02.55
     Peak level 99.4 %
     Extraction speed 4.0 X
     Track quality 100.0 %
     Test CRC 797C73FA
     Copy CRC 797C73FA
     Accurately ripped (confidence 4)  [15CAB154]  (AR v2)
     Copy OK
Track  8
     Filename C:\Users\yav\Desktop\The Divine Comedy\Albums\Rest-Of-World Releases\1996 - Casanova (USA, Red Ink, WK36863)\CD1\08. A Woman Of The World.wav
     Pre-gap length  0:00:00.65
     Peak level 82.7 %
     Extraction speed 3.7 X
     Track quality 99.9 %
     Test CRC 44BBDCFA
     Copy CRC 44BBDCFA
     Accurately ripped (confidence 4)  [26369B7C]  (AR v2)
     Copy OK
Track  9
     Filename C:\Users\yav\Desktop\The Divine Comedy\Albums\Rest-Of-World Releases\1996 - Casanova (USA, Red Ink, WK36863)\CD1\09. Through A Long & Sleepless Night.wav
     Pre-gap length  0:00:00.08
     Peak level 99.4 %
     Extraction speed 4.5 X
     Track quality 100.0 %
     Test CRC 8A2236F2
     Copy CRC 8A2236F2
     Accurately ripped (confidence 4)  [B3CA4D85]  (AR v2)
     Copy OK
Track 10
     Filename C:\Users\yav\Desktop\The Divine Comedy\Albums\Rest-Of-World Releases\1996 - Casanova (USA, Red Ink, WK36863)\CD1\10. Theme From Casanova.wav
     Pre-gap length  0:00:00.15
     Peak level 80.8 %
     Extraction speed 4.7 X
     Track quality 100.0 %
     Test CRC 98D77B62
     Copy CRC 98D77B62
     Accurately ripped (confidence 4)  [0A9379CD]  (AR v2)
     Copy OK
Track 11
     Filename C:\Users\yav\Desktop\The Divine Comedy\Albums\Rest-Of-World Releases\1996 - Casanova (USA, Red Ink, WK36863)\CD1\11. The Dogs & The Horses.wav
     Pre-gap length  0:00:00.02
     Peak level 98.9 %
     Extraction speed 4.4 X
     Track quality 99.9 %
     Test CRC 672C0217
     Copy CRC 672C0217
     Accurately ripped (confidence 4)  [AFA5E2B0]  (AR v2)
     Copy OK
All tracks accurately ripped
No errors occurred
End of status report
---- CUETools DB Plugin V2.1.6
[CTDB TOCID: WEFsPsl_if1B322RgYubq44VgP0-] found
Submit result: already submitted
Track | CTDB Status
  1   | (132/133) Accurately ripped
  2   | (133/133) Accurately ripped
  3   | (133/133) Accurately ripped
  4   | (133/133) Accurately ripped
  5   | (132/133) Accurately ripped
  6   | (132/133) Accurately ripped
  7   | (133/133) Accurately ripped
  8   | (133/133) Accurately ripped
  9   | (133/133) Accurately ripped
 10   | (132/133) Accurately ripped
 11   | (131/133) Accurately ripped
==== Log checksum C6710FA903FD8A137C5343B2C673701D3F2E5255805993DFDD9D0AD35FB13E9E ====
Код:
Exact Audio Copy V1.3 from 2. September 2016
EAC extraction logfile from 6. November 2017, 18:46
The Divine Comedy / Casanova Companion
Used drive  : Optiarc DVD RW AD-7280S   Adapter: 1  ID: 0
Read mode               : Secure
Utilize accurate stream : Yes
Defeat audio cache      : Yes
Make use of C2 pointers : No
Read offset correction                      : 48
Overread into Lead-In and Lead-Out          : No
Fill up missing offset samples with silence : Yes
Delete leading and trailing silent blocks   : No
Null samples used in CRC calculations       : Yes
Used interface                              : Native Win32 interface for Win NT & 2000
Gap handling                                : Appended to previous track
Used output format              : User Defined Encoder
Selected bitrate                : 768 kBit/s
Quality                         : High
Add ID3 tag                     : No
Command line compressor         : C:\Program Files (x86)\Exact Audio Copy\FLAC\FLAC.EXE
Additional command line options : -6 -V -T "ARTIST=%artist%" -T "TITLE=%title%" -T "ALBUM=%albumtitle%" -T "DATE=%year%" -T "TRACKNUMBER=%tracknr%" -T "GENRE=%genre%" -T "COMMENT=%comment%" -T "BAND=%albuminterpret%" -T "ALBUMARTIST=%albuminterpret%" -T "COMPOSER=%composer%" %haslyrics%--tag-from-file=LYRICS="%lyricsfile%"%haslyrics% -T "DISCNUMBER=%cdnumber%" -T "TOTALDISCS=%totalcds%" -T "TOTALTRACKS=%numtracks%" %hascover%--picture="%coverfile%"%hascover% %source% -o %dest%
TOC of the extracted CD
     Track |   Start  |  Length  | Start sector | End sector
    ---------------------------------------------------------
        1  |  0:00.00 |  2:59.00 |         0    |    13424
        2  |  2:59.00 |  3:29.50 |     13425    |    29149
        3  |  6:28.50 |  3:57.25 |     29150    |    46949
        4  | 10:26.00 |  4:37.50 |     46950    |    67774
        5  | 15:03.50 |  3:28.25 |     67775    |    83399
        6  | 18:32.00 |  4:20.25 |     83400    |   102924
Track  1
     Filename C:\Users\yav\Desktop\The Divine Comedy\Albums\Rest-Of-World Releases\1996 - Casanova (USA, Red Ink, WK36863)\CD2\01. Tonight We Fly.wav
     Pre-gap length  0:00:02.00
     Peak level 96.6 %
     Extraction speed 4.7 X
     Track quality 100.0 %
     Test CRC 520F4B53
     Copy CRC 520F4B53
     Accurately ripped (confidence 2)  [51971F43]  (AR v2)
     Copy OK
Track  2
     Filename C:\Users\yav\Desktop\The Divine Comedy\Albums\Rest-Of-World Releases\1996 - Casanova (USA, Red Ink, WK36863)\CD2\02. When the Lights Go Out All Over Europe.wav
     Pre-gap length  0:00:01.25
     Peak level 96.6 %
     Extraction speed 5.2 X
     Track quality 100.0 %
     Test CRC D45F8DEB
     Copy CRC D45F8DEB
     Accurately ripped (confidence 2)  [975B0B5C]  (AR v2)
     Copy OK
Track  3
     Filename C:\Users\yav\Desktop\The Divine Comedy\Albums\Rest-Of-World Releases\1996 - Casanova (USA, Red Ink, WK36863)\CD2\03. Your Daddy's Car.wav
     Pre-gap length  0:00:01.25
     Peak level 96.6 %
     Extraction speed 5.7 X
     Track quality 100.0 %
     Test CRC FF9AFF14
     Copy CRC FF9AFF14
     Accurately ripped (confidence 2)  [B5C73F2F]  (AR v2)
     Copy OK
Track  4
     Filename C:\Users\yav\Desktop\The Divine Comedy\Albums\Rest-Of-World Releases\1996 - Casanova (USA, Red Ink, WK36863)\CD2\04. Lucy.wav
     Pre-gap length  0:00:01.00
     Peak level 96.6 %
     Extraction speed 6.2 X
     Track quality 100.0 %
     Test CRC 599C678D
     Copy CRC 599C678D
     Accurately ripped (confidence 2)  [425E01D7]  (AR v2)
     Copy OK
Track  5
     Filename C:\Users\yav\Desktop\The Divine Comedy\Albums\Rest-Of-World Releases\1996 - Casanova (USA, Red Ink, WK36863)\CD2\05. Johnny Mathis' Feet (Live).wav
     Pre-gap length  0:00:00.50
     Peak level 91.5 %
     Extraction speed 6.3 X
     Track quality 100.0 %
     Test CRC 81718059
     Copy CRC 81718059
     Accurately ripped (confidence 2)  [00AC282E]  (AR v2)
     Copy OK
Track  6
     Filename C:\Users\yav\Desktop\The Divine Comedy\Albums\Rest-Of-World Releases\1996 - Casanova (USA, Red Ink, WK36863)\CD2\06. Something For The Weekend (Live).wav
     Peak level 93.9 %
     Extraction speed 6.9 X
     Track quality 100.0 %
     Test CRC 45337D42
     Copy CRC 45337D42
     Accurately ripped (confidence 2)  [34BEDBAD]  (AR v2)
     Copy OK
All tracks accurately ripped
No errors occurred
End of status report
---- CUETools DB Plugin V2.1.6
[CTDB TOCID: Ge8En_9IoffJQyzlfiUnE.2Fnv4-] found
Submit result: already submitted
Track | CTDB Status
  1   | (7/7) Accurately ripped
  2   | (7/7) Accurately ripped
  3   | (7/7) Accurately ripped
  4   | (7/7) Accurately ripped
  5   | (7/7) Accurately ripped
  6   | (7/7) Accurately ripped
==== Log checksum C21CA19942AFF31A23044D9D60625C68385EEF27C177CE804017DFB4A15A39B9 ====
Код:
REM GENRE Pop
REM DATE 1996
REM DISCID 8F0C260B
REM COMMENT "ExactAudioCopy v1.3"
PERFORMER "The Divine Comedy"
TITLE "Casanova"
REM COMPOSER ""
FILE "01. Something For The Weekend.wav" WAVE
  TRACK 01 AUDIO
    TITLE "Something For The Weekend"
    PERFORMER "The Divine Comedy"
    REM COMPOSER ""
    INDEX 01 00:00:00
  TRACK 02 AUDIO
    TITLE "Becoming More Like Alfie"
    PERFORMER "The Divine Comedy"
    REM COMPOSER ""
    INDEX 00 04:19:40
FILE "02. Becoming More Like Alfie.wav" WAVE
    INDEX 01 00:00:00
  TRACK 03 AUDIO
    TITLE "Middle-Class Heroes"
    PERFORMER "The Divine Comedy"
    REM COMPOSER ""
    INDEX 00 02:58:58
FILE "03. Middle-Class Heroes.wav" WAVE
    INDEX 01 00:00:00
  TRACK 04 AUDIO
    TITLE "In & Out In Paris & London"
    PERFORMER "The Divine Comedy"
    REM COMPOSER ""
    INDEX 00 05:25:20
FILE "04. In & Out In Paris & London.wav" WAVE
    INDEX 01 00:00:00
  TRACK 05 AUDIO
    TITLE "Charge"
    PERFORMER "The Divine Comedy"
    REM COMPOSER ""
    INDEX 00 03:24:20
FILE "05. Charge.wav" WAVE
    INDEX 01 00:00:00
  TRACK 06 AUDIO
    TITLE "Songs Of Love"
    PERFORMER "The Divine Comedy"
    REM COMPOSER ""
    INDEX 00 05:27:03
FILE "06. Songs Of Love.wav" WAVE
    INDEX 01 00:00:00
  TRACK 07 AUDIO
    TITLE "The Frog Princess"
    PERFORMER "The Divine Comedy"
    REM COMPOSER ""
    INDEX 00 03:23:35
FILE "07. The Frog Princess.wav" WAVE
    INDEX 01 00:00:00
  TRACK 08 AUDIO
    TITLE "A Woman Of The World"
    PERFORMER "The Divine Comedy"
    REM COMPOSER ""
    INDEX 00 05:12:42
FILE "08. A Woman Of The World.wav" WAVE
    INDEX 01 00:00:00
  TRACK 09 AUDIO
    TITLE "Through A Long & Sleepless Night"
    PERFORMER "The Divine Comedy"
    REM COMPOSER ""
    INDEX 00 04:12:15
FILE "09. Through A Long & Sleepless Night.wav" WAVE
    INDEX 01 00:00:00
  TRACK 10 AUDIO
    TITLE "Theme From Casanova"
    PERFORMER "The Divine Comedy"
    REM COMPOSER ""
    INDEX 00 06:12:25
FILE "10. Theme From Casanova.wav" WAVE
    INDEX 01 00:00:00
  TRACK 11 AUDIO
    TITLE "The Dogs & The Horses"
    PERFORMER "The Divine Comedy"
    REM COMPOSER ""
    INDEX 00 05:51:70
FILE "11. The Dogs & The Horses.wav" WAVE
    INDEX 01 00:00:00
Код:
REM DATE 1997
REM DISCID 3D055C06
REM COMMENT "ExactAudioCopy v1.3"
CATALOG 0000000000000
PERFORMER "The Divine Comedy"
TITLE "Casanova Companion"
REM COMPOSER ""
FILE "01. Tonight We Fly.wav" WAVE
  TRACK 01 AUDIO
    TITLE "Tonight We Fly"
    PERFORMER "The Divine Comedy"
    REM COMPOSER ""
    INDEX 01 00:00:00
  TRACK 02 AUDIO
    TITLE "When the Lights Go Out All Over Europe"
    PERFORMER "The Divine Comedy"
    REM COMPOSER ""
    INDEX 00 02:57:50
FILE "02. When the Lights Go Out All Over Europe.wav" WAVE
    INDEX 01 00:00:00
  TRACK 03 AUDIO
    TITLE "Your Daddy's Car"
    PERFORMER "The Divine Comedy"
    REM COMPOSER ""
    INDEX 00 03:28:25
FILE "03. Your Daddy's Car.wav" WAVE
    INDEX 01 00:00:00
  TRACK 04 AUDIO
    TITLE "Lucy"
    PERFORMER "The Divine Comedy"
    REM COMPOSER ""
    INDEX 00 03:56:25
FILE "04. Lucy.wav" WAVE
    INDEX 01 00:00:00
  TRACK 05 AUDIO
    TITLE "Johnny Mathis' Feet (Live)"
    PERFORMER "The Divine Comedy"
    REM COMPOSER ""
    INDEX 00 04:37:00
FILE "05. Johnny Mathis' Feet (Live).wav" WAVE
    INDEX 01 00:00:00
FILE "06. Something For The Weekend (Live).wav" WAVE
  TRACK 06 AUDIO
    TITLE "Something For The Weekend (Live)"
    PERFORMER "The Divine Comedy"
    REM COMPOSER ""
    INDEX 01 00:00:00
Код:
AUDIOCHECKER v2.0 beta (build 457) - by Dester - opdester@freemail.hu
~~~~~~~~~~~~~~~~~~~~~~~~~~~~~~~~~~
Started at: Monday, 06. 11. 2017. - 20:55.43
11 files found
01 -===- D:\The Divine Comedy\Albums\Rest-Of-The-World Releases\1996 - Casanova (USA, Red Ink, WK36863)\CD1\01. Something For The Weekend.flac
  Extracted successfully
  Conclusion: this track is CDDA with probability 100%
  Tempfile successfully deleted.
02 -===- D:\The Divine Comedy\Albums\Rest-Of-The-World Releases\1996 - Casanova (USA, Red Ink, WK36863)\CD1\02. Becoming More Like Alfie.flac
  Extracted successfully
  Conclusion: this track is CDDA with probability 100%
  Tempfile successfully deleted.
03 -===- D:\The Divine Comedy\Albums\Rest-Of-The-World Releases\1996 - Casanova (USA, Red Ink, WK36863)\CD1\03. Middle-Class Heroes.flac
  Extracted successfully
  Conclusion: this track is CDDA with probability 100%
  Tempfile successfully deleted.
04 -===- D:\The Divine Comedy\Albums\Rest-Of-The-World Releases\1996 - Casanova (USA, Red Ink, WK36863)\CD1\04. In & Out In Paris & London.flac
  Extracted successfully
  Conclusion: this track is CDDA with probability 100%
  Tempfile successfully deleted.
05 -===- D:\The Divine Comedy\Albums\Rest-Of-The-World Releases\1996 - Casanova (USA, Red Ink, WK36863)\CD1\05. Charge.flac
  Extracted successfully
  Conclusion: this track is CDDA with probability 100%
  Tempfile successfully deleted.
06 -===- D:\The Divine Comedy\Albums\Rest-Of-The-World Releases\1996 - Casanova (USA, Red Ink, WK36863)\CD1\06. Songs Of Love.flac
  Extracted successfully
  Conclusion: this track is CDDA with probability 100%
  Tempfile successfully deleted.
07 -===- D:\The Divine Comedy\Albums\Rest-Of-The-World Releases\1996 - Casanova (USA, Red Ink, WK36863)\CD1\07. The Frog Princess.flac
  Extracted successfully
  Conclusion: this track is CDDA with probability 100%
  Tempfile successfully deleted.
08 -===- D:\The Divine Comedy\Albums\Rest-Of-The-World Releases\1996 - Casanova (USA, Red Ink, WK36863)\CD1\08. A Woman Of The World.flac
  Extracted successfully
  Conclusion: this track is CDDA with probability 100%
  Tempfile successfully deleted.
09 -===- D:\The Divine Comedy\Albums\Rest-Of-The-World Releases\1996 - Casanova (USA, Red Ink, WK36863)\CD1\09. Through A Long & Sleepless Night.flac
  Extracted successfully
  Conclusion: this track is CDDA with probability 100%
  Tempfile successfully deleted.
10 -===- D:\The Divine Comedy\Albums\Rest-Of-The-World Releases\1996 - Casanova (USA, Red Ink, WK36863)\CD1\10. Theme From Casanova.flac
  Extracted successfully
  Conclusion: this track is CDDA with probability 100%
  Tempfile successfully deleted.
11 -===- D:\The Divine Comedy\Albums\Rest-Of-The-World Releases\1996 - Casanova (USA, Red Ink, WK36863)\CD1\11. The Dogs & The Horses.flac
  Extracted successfully
  Conclusion: this track is CDDA with probability 100%
  Tempfile successfully deleted.
Finished at: Monday, 06. 11. 2017. - 20:58.13 (operation time: 0:02.29)
Код:
AUDIOCHECKER v2.0 beta (build 457) - by Dester - opdester@freemail.hu
~~~~~~~~~~~~~~~~~~~~~~~~~~~~~~~~~~
Started at: Monday, 06. 11. 2017. - 21:00.15
6 files found
1 -===- D:\The Divine Comedy\Albums\Rest-Of-The-World Releases\1996 - Casanova (USA, Red Ink, WK36863)\CD2\01. Tonight We Fly.flac
  Extracted successfully
  Conclusion: this track is CDDA with probability 100%
  Tempfile successfully deleted.
2 -===- D:\The Divine Comedy\Albums\Rest-Of-The-World Releases\1996 - Casanova (USA, Red Ink, WK36863)\CD2\02. When the Lights Go Out All Over Europe.flac
  Extracted successfully
  Conclusion: this track is CDDA with probability 100%
  Tempfile successfully deleted.
3 -===- D:\The Divine Comedy\Albums\Rest-Of-The-World Releases\1996 - Casanova (USA, Red Ink, WK36863)\CD2\03. Your Daddy's Car.flac
  Extracted successfully
  Conclusion: this track is CDDA with probability 100%
  Tempfile successfully deleted.
4 -===- D:\The Divine Comedy\Albums\Rest-Of-The-World Releases\1996 - Casanova (USA, Red Ink, WK36863)\CD2\04. Lucy.flac
  Extracted successfully
  Conclusion: this track is CDDA with probability 100%
  Tempfile successfully deleted.
5 -===- D:\The Divine Comedy\Albums\Rest-Of-The-World Releases\1996 - Casanova (USA, Red Ink, WK36863)\CD2\05. Johnny Mathis' Feet (Live).flac
  Extracted successfully
  Conclusion: this track is CDDA with probability 100%
  Tempfile successfully deleted.
6 -===- D:\The Divine Comedy\Albums\Rest-Of-The-World Releases\1996 - Casanova (USA, Red Ink, WK36863)\CD2\06. Something For The Weekend (Live).flac
  Extracted successfully
  Conclusion: this track is CDDA with probability 100%
  Tempfile successfully deleted.
Finished at: Monday, 06. 11. 2017. - 21:01.19 (operation time: 0:01.04)
CD1

CD2
Правила, инструкции, FAQ!!!
Торрент  Добавлен [26 мар 2019, 20:58] Скачать торрент Магнет ссылка
Скачать торрент
[ Размер 11.98 КБ / Просмотров 4 ]

Статус
Проверен 
 
Размер  513.54 МБ
Приватный: Нет (DHT включён)
.torrent скачан  1
 


     Отправить личное сообщение
   
Страница 1 из 1
Показать сообщения за:  Поле сортировки  
Начать новую тему Ответить на тему


Сейчас этот форум просматривают: нет зарегистрированных пользователей и гости: 0


Вы не можете начинать темы
Вы не можете отвечать на сообщения
Вы не можете редактировать свои сообщения
Вы не можете удалять свои сообщения
Вы не можете добавлять вложения

Перейти:  
cron