Начать новую тему Ответить на тему
Статистика раздачи
Размер: 346.05 МБ | Добавлен: 26 мар 2019, 19:53 | Скачали: 0
Сидеров: 0  [0 байт/сек]    Личеров: 0  [0 байт/сек]
Пред. тема | След. тема 

Автор
Сообщение

СообщениеДобавлено: 26 мар 2019, 19:53 

Ответить с цитатой 

Rufus Wainwright - Want Two
Жанр: Baroque pop, Operatic pop
Год выпуска диска: 2004
Производитель диска: Canada
Аудио кодек: APE
Тип рипа: image+.cue
Битрейт аудио: lossless
Продолжительность: 01:00:22
Трэклист:
01 "Agnus Dei" – 5:45
02 "The One You Love" – 3:44
03 "Peach Trees" – 5:59
04 "Little Sister" – 3:22
05 "The Art Teacher" – 3:51
06 "Hometown Waltz" – 2:33
07 "This Love Affair" – 3:13
08 "Gay Messiah" – 3:14
09 "Memphis Skyline" – 4:51
10 "Waiting for a Dream" – 4:14
11 "Crumb by Crumb" – 4:13
12 "Old Whore's Diet" – 9:09
13 "Coeur de Parisienne — Reprise d'Arletty" (live) (bonus track) – 2:46
14 "Quand vous mourez de nos amours" (live) (bonus track) - 3.23
Exact Audio Copy V0.99 prebeta 4 from 23. January 2008
EAC extraction logfile from 6. June 2009, 13:34
Wainwright, Rufus / Want Two [Special Edition]
Used drive : _NEC DVD_RW ND-3550A Adapter: 0 ID: 1
Read mode : Secure
Utilize accurate stream : Yes
Defeat audio cache : Yes
Make use of C2 pointers : No
Read offset correction : 48
Overread into Lead-In and Lead-Out : No
Fill up missing offset samples with silence : Yes
Delete leading and trailing silent blocks : No
Null samples used in CRC calculations : Yes
Used interface : Installed external ASPI interface
Used output format : Internal WAV Routines
Sample format : 44.100 Hz; 16 Bit; Stereo
TOC of the extracted CD
Track | Start | Length | Start sector | End sector
---------------------------------------------------------
1 | 0:00.00 | 5:45.50 | 0 | 25924
2 | 5:45.50 | 3:44.13 | 25925 | 42737
3 | 9:29.63 | 5:59.10 | 42738 | 69672
4 | 15:28.73 | 3:22.70 | 69673 | 84892
5 | 18:51.68 | 3:51.17 | 84893 | 102234
6 | 22:43.10 | 2:33.35 | 102235 | 113744
7 | 25:16.45 | 3:13.15 | 113745 | 128234
8 | 28:29.60 | 3:14.63 | 128235 | 142847
9 | 31:44.48 | 4:51.45 | 142848 | 164717
10 | 36:36.18 | 4:14.10 | 164718 | 183777
11 | 40:50.28 | 4:13.00 | 183778 | 202752
12 | 45:03.28 | 9:09.32 | 202753 | 243959
13 | 54:12.60 | 2:46.43 | 243960 | 256452
14 | 56:59.28 | 3:23.30 | 256453 | 271707
Range status and errors
Selected range
Filename G:\music\rufus wainwright\2004 want two\rufus wainwright - want two [special edition].wav
Peak level 98.0 %
Range quality 99.9 %
Copy CRC 034692AE
Copy OK
No errors occurred
End of status report
Правила, инструкции, FAQ!!!
Торрент  Добавлен [26 мар 2019, 19:53] Скачать торрент Магнет ссылка
Скачать торрент
[ Размер 27.96 КБ / Просмотров 3 ]

Статус
Проверен 
 
Размер  346.05 МБ
Приватный: Нет (DHT включён)
.torrent скачан  0
 


     Отправить личное сообщение
   
Страница 1 из 1
Показать сообщения за:  Поле сортировки  
Начать новую тему Ответить на тему


Сейчас этот форум просматривают: нет зарегистрированных пользователей и гости: 0


Вы не можете начинать темы
Вы не можете отвечать на сообщения
Вы не можете редактировать свои сообщения
Вы не можете удалять свои сообщения
Вы не можете добавлять вложения

Перейти:  
cron