Начать новую тему Ответить на тему
Статистика раздачи
Размер: 355.66 МБ | Добавлен: 26 мар 2019, 20:06 | Скачали: 0
Сидеров: 0  [0 байт/сек]    Личеров: 0  [0 байт/сек]
Пред. тема | След. тема 

Автор
Сообщение

СообщениеДобавлено: 26 мар 2019, 20:06 

Ответить с цитатой 

Rufus Wainwright - Want One
Жанр: Baroque pop, Operatic pop
Год выпуска диска: 2003
Производитель диска: USA
Аудио кодек: APE
Тип рипа: image+.cue
Битрейт аудио: lossless
Продолжительность: 00:58:51
Трэклист:
1. "Oh What a World" – 4:23
2. "I Don't Know What It Is" – 4:51
3. "Vicious World" – 2:50
4. "Movies of Myself" – 4:31
5. "Pretty Things" – 2:40
6. "Go or Go Ahead" – 6:39
7. "Vibrate" – 2:44
8. "14th Street" – 4:44
9. "Natasha" – 3:29
10. "Harvester of Hearts" – 3:35
11. "Beautiful Child" – 4:16
12. "Want" – 5:11
13. "11:11" – 4:27
14. "Dinner at Eight" – 4:33
ct Audio Copy V0.99 prebeta 4 from 23. January 2008
EAC extraction logfile from 25. June 2009, 17:59
Rufus Wainwright / Want One
Used drive : _NEC DVD_RW ND-3550A Adapter: 0 ID: 1
Read mode : Secure
Utilize accurate stream : Yes
Defeat audio cache : Yes
Make use of C2 pointers : No
Read offset correction : 48
Overread into Lead-In and Lead-Out : No
Fill up missing offset samples with silence : Yes
Delete leading and trailing silent blocks : No
Null samples used in CRC calculations : Yes
Used interface : Installed external ASPI interface
Used output format : Internal WAV Routines
Sample format : 44.100 Hz; 16 Bit; Stereo
TOC of the extracted CD
Track | Start | Length | Start sector | End sector
---------------------------------------------------------
1 | 0:00.00 | 4:23.10 | 0 | 19734
2 | 4:23.10 | 4:51.20 | 19735 | 41579
3 | 9:14.30 | 2:49.67 | 41580 | 54321
4 | 12:04.22 | 4:30.73 | 54322 | 74644
5 | 16:35.20 | 2:40.45 | 74645 | 86689
6 | 19:15.65 | 6:38.10 | 86690 | 116549
7 | 25:54.00 | 2:44.05 | 116550 | 128854
8 | 28:38.05 | 4:44.30 | 128855 | 150184
9 | 33:22.35 | 3:28.62 | 150185 | 165846
10 | 36:51.22 | 3:35.35 | 165847 | 182006
11 | 40:26.57 | 4:15.20 | 182007 | 201151
12 | 44:42.02 | 5:10.73 | 201152 | 224474
13 | 49:53.00 | 4:27.40 | 224475 | 244539
14 | 54:20.40 | 4:31.32 | 244540 | 264896
15 | 61:23.72 | 0:07.51 | 276297 | 276872
Range status and errors
Selected range
Filename G:\music\rufus wainwright\2003 want one\Rufus Wainwright - Want One.wav
Peak level 99.7 %
Range quality 100.0 %
Copy CRC 6370F5CE
Copy OK
No errors occurred
End of status report
Правила, инструкции, FAQ!!!
Торрент  Добавлен [26 мар 2019, 20:06] Скачать торрент Магнет ссылка
Скачать торрент
[ Размер 28.51 КБ / Просмотров 0 ]

Статус
Проверен 
 
Размер  355.66 МБ
Приватный: Нет (DHT включён)
.torrent скачан  0
 


     Отправить личное сообщение
   
Страница 1 из 1
Показать сообщения за:  Поле сортировки  
Начать новую тему Ответить на тему


Сейчас этот форум просматривают: нет зарегистрированных пользователей и гости: 0


Вы не можете начинать темы
Вы не можете отвечать на сообщения
Вы не можете редактировать свои сообщения
Вы не можете удалять свои сообщения
Вы не можете добавлять вложения

Перейти:  
cron