Начать новую тему Ответить на тему
Статистика раздачи
Размер: 161.98 МБ | Добавлен: 26 мар 2019, 20:39 | Скачали: 0
Сидеров: 0  [0 байт/сек]    Личеров: 0  [0 байт/сек]
Пред. тема | След. тема 

Автор
Сообщение

СообщениеДобавлено: 26 мар 2019, 20:39 

Ответить с цитатой 

Southside Johnny / On The Air Tonight
Жанр: Ballad, Classic Rock
Год издания: 1989
Издатель (лейбл): RCA
Номер по каталогу: PD42618
Аудиокодек: FLAC (*.flac)
Тип рипа: image+.cue
Битрейт аудио: lossless
Продолжительность: 12:39
Источник (релизер): свой рип
Наличие сканов в содержимом раздачи: да
Треклист:
01. Southside Johnny - On The Air Tonight [04:00]
02. Southside Johnny - Walking Through Midnight [04:34]
03. Southside Johnny - Tell Me (That Our Love's Still Strong) [04:05]
Код:
Exact Audio Copy V1.0 beta 3 from 29. August 2011
EAC extraction logfile from 22. April 2012, 21:57
Southside Johnny / On The Air Tonight
Used drive  : PLEXTOR DVDR   PX-755A   Adapter: 0  ID: 1
Read mode               : Secure
Utilize accurate stream : Yes
Defeat audio cache      : Yes
Make use of C2 pointers : No
Read offset correction                      : 30
Overread into Lead-In and Lead-Out          : No
Fill up missing offset samples with silence : Yes
Delete leading and trailing silent blocks   : No
Null samples used in CRC calculations       : Yes
Used interface                              : Native Win32 interface for Win NT & 2000
Used output format              : User Defined Encoder
Selected bitrate                : 128 kBit/s
Quality                         : High
Add ID3 tag                     : No
Command line compressor         : C:\Program Files (x86)\Exact Audio Copy\Flac\flac.exe
Additional command line options : -V -8 -T "Date=%year%" -T "COMMENT=ripped by Andy aka yetiisyou" -T "Genre=%genre%" %source%
TOC of the extracted CD
     Track |   Start  |  Length  | Start sector | End sector
    ---------------------------------------------------------
        1  |  0:00.00 |  4:04.50 |         0    |    18349
        2  |  4:04.50 |  4:39.47 |     18350    |    39321
        3  |  8:44.22 |  4:05.03 |     39322    |    57699
Range status and errors
Selected range
     Filename E:\!Rips\Southside Johnny – On The Air Tonight [RCA – PD42618] [1989]\Southside Johnny - On The Air Tonight.wav
     Peak level 93.0 %
     Extraction speed 2.4 X
     Range quality 100.0 %
     Test CRC 1179B251
     Copy CRC 1179B251
     Copy OK
No errors occurred
AccurateRip summary
Track  1  accurately ripped (confidence 2)  [50BE5D86]  (AR v1)
Track  2  accurately ripped (confidence 2)  [512553C9]  (AR v1)
Track  3  accurately ripped (confidence 2)  [F9D91126]  (AR v1)
All tracks accurately ripped
End of status report
---- CUETools DB Plugin V2.1.3
[CTDB TOCID: e3eGAKnRR50XUMGqSjfRsC0d8Oo-] found, Submit result: e3eGAKnRR50XUMGqSjfRsC0d8Oo- has been confirmed
[fa32278b] (1/1) Accurately ripped
==== Log checksum D6E14F58E456E918FA434DE2155FE6FD0B5ACAC013CB55E5E0D7FAEA2ED9F424 ====
Код:
REM GENRE Rock
REM DATE 1988
REM DISCID 1B030103
REM COMMENT "ExactAudioCopy v1.0b3"
CATALOG 0000000000000
PERFORMER "Southside Johnny"
TITLE "On The Air Tonight"
FILE "Southside Johnny - On The Air Tonight.flac" WAVE
  TRACK 01 AUDIO
    TITLE "On The Air Tonight"
    PERFORMER "Southside Johnny"
    INDEX 01 00:00:00
  TRACK 02 AUDIO
    TITLE "Walking Through Midnight"
    PERFORMER "Southside Johnny"
    INDEX 00 04:00:22
    INDEX 01 04:04:50
  TRACK 03 AUDIO
    TITLE "Tell Me (That Our Love's Still Strong)"
    PERFORMER "Southside Johnny"
    INDEX 00 08:39:25
    INDEX 01 08:44:22
Правила, инструкции, FAQ!!!
Торрент  Добавлен [26 мар 2019, 20:39] Скачать торрент Магнет ссылка
Скачать торрент
[ Размер 13.51 КБ / Просмотров 2 ]

Статус
Проверен 
 
Размер  161.98 МБ
Приватный: Нет (DHT включён)
.torrent скачан  0
 


     Отправить личное сообщение
   
Страница 1 из 1
Показать сообщения за:  Поле сортировки  
Начать новую тему Ответить на тему


Сейчас этот форум просматривают: нет зарегистрированных пользователей и гости: 0


Вы не можете начинать темы
Вы не можете отвечать на сообщения
Вы не можете редактировать свои сообщения
Вы не можете удалять свои сообщения
Вы не можете добавлять вложения

Перейти:  
cron