Начать новую тему Ответить на тему
Статистика раздачи
Размер: 8.37 ГБ | Добавлен: 18 май 2020, 09:29 | Скачали: 1
Сидеров: 21  [0 байт/сек]    Личеров: 7  [0 байт/сек]
Пред. тема | След. тема 

Автор
Сообщение

СообщениеДобавлено: 18 май 2020, 09:29 

Ответить с цитатой 

BABYMETAL - Legend - Metal Galaxy Day-2
Жанр: Kawaii Metal
Продолжительность: 00:59:58
Год выпуска: 2020
Сет-лист:
1. IN THE NAME OF
2. Distortion
3. PA PA YA!!
4. KARATE
5. Syncopation
6. Headbangeeeeerrrrr!!!!!
7. Starlight
8. Shine
9. Arkadia
10. Ijime, Dame, Zettai
Качество: HDTV
Разрешение видео/развертка: 1080i
Контейнер: TS
Видео кодек: MPEG2
Аудио кодек: AAC
Видео: MPEG2, 1920x1080, 19.2 Mbps, 29.970 fps
Аудио: AAC, 192 Kbps, 48.0 KHz, Stereo
Код:
Общее
Идентификатор                            : 17488 (0x4450)
Полное имя                               : D:\Раздачи\BABYMETAL - Legend -Metal Galaxy- Day 2 (2020)\2005172000_【WOWOWライブ】【初】BABYMETAL LEGEND - METAL GALAXY DAY-2.ts
Формат                                   : MPEG-TS
Размер файла                             : 8,37 Гбайт
Продолжительность                        : 59 м. 58 с.
Режим общего битрейта                    : Переменный
Общий поток                              : 20,0 Мбит/сек
Минимальный общий битрейт                : 387 Кбит/сек
Максимальный общий битрейт               : 21,3 Мбит/сек
Видео
Идентификатор                            : 576 (0x240)
Идентификатор меню                       : 192 (0xC0)
Формат                                   : MPEG Video
Версия формата                           : Version 2
Профиль формата                          : Main@High
Настройки формата                        : CustomMatrix / BVOP
Параметр BVOP формата                    : Да
Параметр матрицы формата                 : Выборочная
Параметр GOP формата                     : Variable
Структура изображения                    : Frame
Идентификатор кодека                     : 2
Продолжительность                        : 59 м. 58 с.
Вид битрейта                             : Переменный
Битрейт                                  : 19,2 Мбит/сек
Максимальный битрейт                     : 24,0 Мбит/сек
Ширина                                   : 1920 пикселей
Высота                                   : 1080 пикселей
Соотношение сторон                       : 16:9
Частота кадров                           : 29,970 (30000/1001) кадров/сек
Цветовое пространство                    : YUV
Субдискретизация насыщенности            : 4:2:0
Битовая глубина                          : 8 бит
Тип развёртки                            : Чересстрочная
Порядок развёртки                        : Верхнее поле первое
Метод сжатия                             : С потерями
Бит/(Пиксели*Кадры)                      : 0.310
Временной код первого кадра              : 12:28:10:02
Оригинал временного кода                 : Group of pictures header
GOP, открыто/закрыто                     : Открыто
Размер потока                            : 8,06 Гбайт (96%)
Основные цвета                           : BT.709
Характеристики трансфера                 : BT.709
Коэффициенты матрицы                     : BT.709
Аудио
Идентификатор                            : 577 (0x241)
Идентификатор меню                       : 192 (0xC0)
Формат                                   : AAC LC
Формат/Информация                        : Advanced Audio Codec Low Complexity
Версия формата                           : Version 2
Режим смешивания                         : ADTS
Идентификатор кодека                     : 15-2
Продолжительность                        : 59 м. 58 с.
Вид битрейта                             : Переменный
Битрейт                                  : 192 Кбит/сек
Минимальный битрейт                      : 15,0 Кбит/сек
Максимальный битрейт                     : 345 Кбит/сек
Каналы                                   : 2 канала
ChannelLayout                            : L R
Частота                                  : 48,0 КГц
Частота кадров                           : 46,875 кадров/сек (1024 SPF)
Метод сжатия                             : С потерями
Задержка видео                           : -283 мс.
Размер потока                            : 82,4 Мбайт (1%)
Текст #1
Идентификатор                            : 581 (0x245)-1
Идентификатор меню                       : 192 (0xC0)
Формат                                   : ARIB STD B24/B37
Профиль формата                          : HD side panel
Режим смешивания                         : CCIS
Идентификатор кодека                     : 6
Вид битрейта                             : Постоянный
Размер потока                            : 0,00 байт (0%)
Язык                                     : Japanese
Encryption                               : Encrypted
Текст #2
Идентификатор                            : 581 (0x245)-2
Идентификатор меню                       : 192 (0xC0)
Формат                                   : ARIB STD B24/B37
Профиль формата                          : HD side panel
Режим смешивания                         : CCIS
Идентификатор кодека                     : 6
Вид битрейта                             : Постоянный
Размер потока                            : 0,00 байт (0%)
Язык                                     : English
Encryption                               : Encrypted
Правила, инструкции, FAQ!!!
Торрент  Добавлен [18 май 2020, 09:29] Скачать торрент Магнет ссылка
Скачать торрент
[ Размер 21.51 КБ / Просмотров 8 ]

Статус
Проверен 
 
Размер  8.37 ГБ
Приватный: Нет (DHT включён)
.torrent скачан  1
 


     Отправить личное сообщение
   
Страница 1 из 1
Показать сообщения за:  Поле сортировки  
Начать новую тему Ответить на тему


Сейчас этот форум просматривают: нет зарегистрированных пользователей и гости: 0


Вы не можете начинать темы
Вы не можете отвечать на сообщения
Вы не можете редактировать свои сообщения
Вы не можете удалять свои сообщения
Вы не можете добавлять вложения

Перейти:  
cron