Начать новую тему Ответить на тему
Статистика раздачи
Размер: 119.39 МБ | Добавлен: 26 мар 2019, 19:57 | Скачали: 0
Сидеров: 1  [0 байт/сек]    Личеров: 0  [0 байт/сек]
Пред. тема | След. тема 

Автор
Сообщение

СообщениеДобавлено: 26 мар 2019, 19:57 

Ответить с цитатой 

Sparks - When I Kiss You (I Hear Charlie Parker Playing) [Special Collector's Edition EP]
Жанр: Art Pop
Откуда: USA
Год издания диска: 1995
Записанный материал датируется: 1995
Продюсирование: Ron Mael & Russell Mael
Издатель (лейбл): Logic Records / BMG
Страна-производитель диска: EC
Аудио кодек: FLAC (*.flac)
Тип рипа: image+.cue
Битрейт аудио: lossless
Источник (релизер): Собственный диск
Наличие сканов в содержимом раздачи: Все сканы оформления c разрешенем 300 dpi
Продолжительность: 20:09
Трэклист:
1. Sparks - When I Kiss You (I Hear Charlie Parker Playing) [The Beatmasters' Radio Edit] (3:56)
2. Sparks - When I Kiss You (I Hear Charlie Parker Playing) [Bernard Butler's Fashionable World Of Fashion Mix] (7:07)
3. Sparks - This Town Ain' Big Enough For The Both Of Us [Bbc Session] (3:35)
4. Sparks - When I Kiss You (I Hear Charlie Parker Playing) [The Beatmasters' Full-Blown Dub] (5:31)
Доп. информация:
Редкий ИПи с версиями трека из альбома 94-го года "Gratuitous Sax & Senseless Violins" и редкой лайв-версией старого шедевра из альбома 1974 года.
Рецензии приветствуются.
МОИ РАЗДАЧИ
http://rutracker.org/forum/tracker.php?rid=3947305
По всем вопросам пишите в ЛС, пожалуйста.
Код:
Exact Audio Copy V0.99 prebeta 3 from 28. July 2007
EAC extraction logfile from 25. September 2010, 1:55
Sparks / When I Kiss You (I Hear Charlie Parker Playing)
Used drive  : _NEC    DVD_RW ND-2510A   Adapter: 1  ID: 0
Read mode               : Secure
Utilize accurate stream : Yes
Defeat audio cache      : Yes
Make use of C2 pointers : No
Read offset correction                      : 48
Overread into Lead-In and Lead-Out          : No
Fill up missing offset samples with silence : Yes
Delete leading and trailing silent blocks   : No
Null samples used in CRC calculations       : Yes
Used interface                              : Native Win32 interface for Win NT & 2000
Used output format              : User Defined Encoder
Selected bitrate                : 1024 kBit/s
Quality                         : High
Add ID3 tag                     : No
Command line compressor         : C:\Program Files\Exact Audio Copy\Flac\flac.exe
Additional command line options : -8 -V %s
TOC of the extracted CD
     Track |   Start  |  Length  | Start sector | End sector
    ---------------------------------------------------------
        1  |  0:00.32 |  3:56.40 |        32    |    17771
        2  |  3:56.72 |  7:07.30 |     17772    |    49826
        3  | 11:04.27 |  3:35.33 |     49827    |    65984
        4  | 14:39.60 |  5:32.00 |     65985    |    90884
Range status and errors
Selected range
     Filename I:\Раздача музыки Torrents\Sparks\When I Kiss You (I Hear Charlie Parker Playing) [EP] (1995)\Sparks - When I Kiss You (I Hear Charlie Parker Playing).wav
     Peak level 81.2 %
     Range quality 100.0 %
     Test CRC FBF375B6
     Copy CRC FBF375B6
     Copy OK
No errors occurred
AccurateRip summary
Track  1  accurately ripped (confidence 5)  [1B643C8A]
Track  2  accurately ripped (confidence 5)  [B36CD140]
Track  3  accurately ripped (confidence 5)  [6BCA3007]
Track  4  accurately ripped (confidence 5)  [94A2AD5D]
All tracks accurately ripped
End of status report
Правила, инструкции, FAQ!!!
Торрент  Добавлен [26 мар 2019, 19:57] Скачать торрент Магнет ссылка
Скачать торрент
[ Размер 19.53 КБ / Просмотров 6 ]

Статус
Проверен 
 
Размер  119.39 МБ
Приватный: Нет (DHT включён)
.torrent скачан  0
 


     Отправить личное сообщение
   
Страница 1 из 1
Показать сообщения за:  Поле сортировки  
Начать новую тему Ответить на тему


Сейчас этот форум просматривают: нет зарегистрированных пользователей и гости: 0


Вы не можете начинать темы
Вы не можете отвечать на сообщения
Вы не можете редактировать свои сообщения
Вы не можете удалять свои сообщения
Вы не можете добавлять вложения

Перейти:  
cron