Начать новую тему Ответить на тему
Статистика раздачи
Размер: 286.71 МБ | Добавлен: 26 мар 2019, 20:51 | Скачали: 0
Сидеров: 0  [0 байт/сек]    Личеров: 0  [0 байт/сек]
Пред. тема | След. тема 

Автор
Сообщение

СообщениеДобавлено: 26 мар 2019, 20:51 

Ответить с цитатой 

Little River Band - Worldwide Love
Жанр: AOR / Symphonic Rock
Год выпуска диска: 1991
Производитель диска: USA
Аудио кодек: APE
Тип рипа: image+.cue
Битрейт аудио: lossless
Продолжительность: 42:43
Трэклист:
1. Worldwide Love (4:26)
2. It's cold out tonight (4:35)
3. There's not another you (3:50)
4. Soul Searching (4:20)
5. Parallel Lines (3:24)
6. Son of a famous man (4:45)
7. The Rhythm King (4:25)
8. If I get lucky (4:14)
9. I dream alone (4:46)
10. The one that got away (3:58)
Доп. информация:
Exact Audio Copy V0.99 prebeta 4 from 23. January 2008
Отчёт EAC об извлечении, выполненном 22. июня 2009, 19:42
Little River Band / Worldwide Love
Дисковод: Optiarc DVD RW AD-7190A Adapter: 0 ID: 0
Режим чтения : Достоверность
Использование точного потока : Да
Отключение кэша аудио : Да
Использование указателей C2 : Нет
Коррекция смещения при чтении : 6
Способность читать области Lead-in и Lead-out : Нет
Заполнение пропущенных сэмплов тишиной : Да
Удаление блоков с тишиной в начале и конце : Нет
При вычислениях CRC использовались нулевые сэмплы : Да
Интерфейс : Встроенный Win32-интерфейс для Win NT/2000
Выходной формат : Внутренние WAV-операции
Формат сэмплов : 44.100 Гц; 16 бит; стерео
TOC извлечённого CD
Трек | Старт | Длительность | Начальный сектор | Конечный сектор
---------------------------------------------------------------------
1 | 0:00.00 | 4:26.53 | 0 | 20002
2 | 4:26.53 | 4:34.73 | 20003 | 40625
3 | 9:01.51 | 3:50.15 | 40626 | 57890
4 | 12:51.66 | 4:19.35 | 57891 | 77350
5 | 17:11.26 | 3:23.62 | 77351 | 92637
6 | 20:35.13 | 4:45.30 | 92638 | 114042
7 | 25:20.43 | 4:24.55 | 114043 | 133897
8 | 29:45.23 | 4:13.70 | 133898 | 152942
9 | 33:59.18 | 4:46.41 | 152943 | 174433
10 | 38:45.59 | 3:57.18 | 174434 | 192226
Характеристики диапазона извлечения и сообщения об ошибках
Выбранный диапазон
Имя файла F:\Аудио Lossless\Little River Band - Worldwide Love (1991)\Little River Band - Worldwide Love.wav
Пиковый уровень 94.6 %
Качество диапазона 100.0 %
CRC теста 09B49FE8
CRC копии 09B49FE8
Копирование... OK
Ошибок не произошло
AccurateRip: сводка
Трек 1 нет в базе данных
Трек 2 нет в базе данных
Трек 3 нет в базе данных
Трек 4 нет в базе данных
Трек 5 нет в базе данных
Трек 6 нет в базе данных
Трек 7 нет в базе данных
Трек 8 нет в базе данных
Трек 9 нет в базе данных
Трек 10 нет в базе данных
Ни одного трека нет в базе AccurateRip
Конец отчёта
Не забывайте говорить спасибо
Пожалуйста не уходите с раздачи
Правила, инструкции, FAQ!!!
Торрент  Добавлен [26 мар 2019, 20:51] Скачать торрент Магнет ссылка
Скачать торрент
[ Размер 12.09 КБ / Просмотров 7 ]

Статус
Проверен 
 
Размер  286.71 МБ
Приватный: Нет (DHT включён)
.torrent скачан  0
 


     Отправить личное сообщение
   
Страница 1 из 1
Показать сообщения за:  Поле сортировки  
Начать новую тему Ответить на тему


Сейчас этот форум просматривают: нет зарегистрированных пользователей и гости: 0


Вы не можете начинать темы
Вы не можете отвечать на сообщения
Вы не можете редактировать свои сообщения
Вы не можете удалять свои сообщения
Вы не можете добавлять вложения

Перейти:  
cron
cron