Начать новую тему Ответить на тему
Статистика раздачи
Размер: 296.5 МБ | Добавлен: 26 мар 2019, 20:12 | Скачали: 0
Сидеров: 0  [0 байт/сек]    Личеров: 0  [0 байт/сек]
Пред. тема | След. тема 

Автор
Сообщение

СообщениеДобавлено: 26 мар 2019, 20:12 

Ответить с цитатой 

= Little River Band =

= We Call It Christmas = 2007 =
Год выпуска диска: 2007
Производитель диска: Australia
Аудио кодек: FLAC
Лейбл: CoreMedia/CMG100
Наличие сканов: Да
Источник: Личная коллекция
Тип рипа: image+.cue
Битрейт аудио: lossless
Трэклист:
1. We Call It Christmas
2. The Season of Love
3. Mary's Christmas
4. Do They Know It's Christmas
5. My Grownup Christmas
6. You Make It Feel Like Christmas
7. A Joyful Noise
8. Jesus, Oh What a Wonderful Child
9. Celebrate Me Home
10. Silent Night
11. 'Til the Season Comes 'Round Again
Total Time: 40:26


Состав:
Reindeer:
Rich Herring: Guitars, Vocals
Stephen Housden: Guitars
Greg Hind: Guitars, Lead Vocals
Chris Marion: Keyboards, Vocals
Wayne Nelson: Bass, Lead Vocals
Kip Raines: Drums, Percussion
Mel Watts: Drums, Percussion
Angels:
Susan Ashton: Vocals
Lisa Gregg: Vocals
Suzanne Karr: Vocals
Andrea Zonn: Violin, Viola, Vocals
Elves:
Jan Janvier: FOH Engineer (teller of all tales)
Dan Lastovka: Monitor Engineer (fixer of all toys)
Pat Ryan: Guitar Tech (finder of all goodies)
Pat Whitwam: Lighting Director (peace on earth)
Arranged and Produced by Little River Band
EAC Log:
Exact Audio Copy V0.99 prebeta 5 from 4. May 2009
EAC extraction logfile from 25. February 2011, 9:39
Little River Band / We Call It Christmas
Used drive : Optiarc DVD RW AD-7203S Adapter: 3 ID: 0
Read mode : Secure
Utilize accurate stream : Yes
Defeat audio cache : Yes
Make use of C2 pointers : No
Read offset correction : 48
Overread into Lead-In and Lead-Out : No
Fill up missing offset samples with silence : Yes
Delete leading and trailing silent blocks : No
Null samples used in CRC calculations : Yes
Used interface : Native Win32 interface for Win NT & 2000
Used output format : User Defined Encoder
Selected bitrate : 128 kBit/s
Quality : High
Add ID3 tag : No
Command line compressor : C:\Program Files (x86)\Exact Audio Copy\Flac\flac.exe
Additional command line options : -8 -V %s
TOC of the extracted CD
Track | Start | Length | Start sector | End sector
---------------------------------------------------------
1 | 0:00.00 | 4:01.49 | 0 | 18123
2 | 4:01.49 | 3:55.61 | 18124 | 35809
3 | 7:57.35 | 3:46.38 | 35810 | 52797
4 | 11:43.73 | 4:10.63 | 52798 | 71610
5 | 15:54.61 | 3:51.71 | 71611 | 89006
6 | 19:46.57 | 3:28.22 | 89007 | 104628
7 | 23:15.04 | 4:21.35 | 104629 | 124238
8 | 27:36.39 | 3:52.16 | 124239 | 141654
9 | 31:28.55 | 3:41.45 | 141655 | 158274
10 | 35:10.25 | 1:53.69 | 158275 | 166818
11 | 37:04.19 | 3:21.62 | 166819 | 181955
Range status and errors
Selected range
Filename E:\Music\Little River Band - We Call It Christmas.wav
Peak level 99.0 %
Range quality 99.9 %
Test CRC 0379134B
Copy CRC 0379134B
Copy OK
No errors occurred
AccurateRip summary
Track 1 not present in database
Track 2 not present in database
Track 3 not present in database
Track 4 not present in database
Track 5 not present in database
Track 6 not present in database
Track 7 not present in database
Track 8 accurately ripped (confidence 1) [72E10CAA]
Track 9 not present in database
Track 10 not present in database
Track 11 not present in database
1 track(s) accurately ripped
10 track(s) not present in the AccurateRip database
Some tracks could not be verified as accurate
End of status report
AudioChecker log:
1 -===- D:\Share\Lossless\Little River Band - We Call It Christmas\Little River Band - We Call It Christmas.flac
Extracted successfully
Conclusion: this track is CDDA with probability 100%
Tempfile successfully deleted.
Доп. информация:
Рождественские песенки от Little River Band. Последний на данный момент их студийный альбом, по непонятным причинам, отсутствующий где бы то ни было в сети. Слушается легко и приятно, однако от настоящего LRB тут мало чего осталось.




Приятного прослушивания!
Зарелизено на rutracker.org
#777
Правила, инструкции, FAQ!!!
Торрент  Добавлен [26 мар 2019, 20:12] Скачать торрент Магнет ссылка
Скачать торрент
[ Размер 12.44 КБ / Просмотров 9 ]

Статус
Проверен 
 
Размер  296.5 МБ
Приватный: Нет (DHT включён)
.torrent скачан  0
 


     Отправить личное сообщение
   
Страница 1 из 1
Показать сообщения за:  Поле сортировки  
Начать новую тему Ответить на тему


Сейчас этот форум просматривают: нет зарегистрированных пользователей и гости: 0


Вы не можете начинать темы
Вы не можете отвечать на сообщения
Вы не можете редактировать свои сообщения
Вы не можете удалять свои сообщения
Вы не можете добавлять вложения

Перейти:  
cron