Начать новую тему Ответить на тему
Статистика раздачи
Размер: 488.73 МБ | Добавлен: 26 мар 2019, 19:48 | Скачали: 0
Сидеров: 0  [0 байт/сек]    Личеров: 0  [0 байт/сек]
Пред. тема | След. тема 

Автор
Сообщение

СообщениеДобавлено: 26 мар 2019, 19:48 

Ответить с цитатой 

Lou Pardini - Look The Other Way
Жанр: AOR, Soft Rock
Носитель: CD
Страна-производитель диска (релиза): Japan
Год издания: 1998
Издатель (лейбл): Victor
Номер по каталогу: VICP-60497
Аудиокодек: FLAC (*.flac)
Тип рипа: tracks+.cue
Битрейт аудио: lossless
Продолжительность: 55:21
Rip by JET 1
Наличие сканов в содержимом раздачи: да
Треклист:
01. Better Late Than Never (5:23)
02. We've Got So Far To Go (4:43)
03. Love Is A Hurtin' Thing (4:54)
04. Time Out For Love (4:25)
05. I'll Always Be There (3:48)
06. Look The Other Way (4:55)
07. Place In My Heart (4:07)
08. Method To The Madness (5:07)
09. How Can I Stop Loving You (4:25)
10. I Just Had To Fall (4:17)
11. Take It Away (4:28)
12. What Might Have Been (4:49)
 
Код:
Exact Audio Copy V1.0 beta 3 from 29. August 2011
EAC extraction logfile from 28. May 2015, 18:10
Lou Pardini / Look The Other Way
Used drive  : ATAPI   DVD A  DH16A6L-C   Adapter: 2  ID: 0
Read mode               : Secure
Utilize accurate stream : Yes
Defeat audio cache      : Yes
Make use of C2 pointers : No
Read offset correction                      : 6
Overread into Lead-In and Lead-Out          : No
Fill up missing offset samples with silence : Yes
Delete leading and trailing silent blocks   : No
Null samples used in CRC calculations       : Yes
Used interface                              : Native Win32 interface for Win NT & 2000
Gap handling                                : Appended to previous track
Used output format              : User Defined Encoder
Selected bitrate                : 1024 kBit/s
Quality                         : High
Add ID3 tag                     : No
Command line compressor         : C:\Program Files\FLAC\flac.exe
Additional command line options : -8 -V -T "ARTIST=%artist%" -T "TITLE=%title%" -T "ALBUM=%albumtitle%" -T "DATE=%year%" -T "TRACKNUMBER=%tracknr%" -T "GENRE=%genre%" -T "PERFORMER=%albuminterpret%" -T "COMPOSER=%composer%" %haslyrics%--tag-from-file=LYRICS="%lyricsfile%"%haslyrics% -T "ALBUMARTIST=%albumartist%" -T "DISCNUMBER=%cdnumber%" -T "TOTALDISCS=%totalcds%" -T "TOTALTRACKS=%numtracks%" -T "COMMENT=%comment%" %source% -o %dest%
TOC of the extracted CD
     Track |   Start  |  Length  | Start sector | End sector
    ---------------------------------------------------------
        1  |  0:00.37 |  5:23.08 |        37    |    24269
        2  |  5:23.45 |  4:42.40 |     24270    |    45459
        3  | 10:06.10 |  4:54.25 |     45460    |    67534
        4  | 15:00.35 |  4:25.00 |     67535    |    87409
        5  | 19:25.35 |  3:47.50 |     87410    |   104484
        6  | 23:13.10 |  4:55.15 |    104485    |   126624
        7  | 28:08.25 |  4:06.67 |    126625    |   145141
        8  | 32:15.17 |  5:07.20 |    145142    |   168186
        9  | 37:22.37 |  4:24.50 |    168187    |   188036
       10  | 41:47.12 |  4:16.38 |    188037    |   207274
       11  | 46:03.50 |  4:28.37 |    207275    |   227411
       12  | 50:32.12 |  4:48.68 |    227412    |   249079
Track  1
     Filename F:\MUSIC\0\POSTS\Lou Pardini - Look The Other Way [Japan] (1998)\01 - Better Late Than Never.wav
     Pre-gap length  0:00:02.37
     Peak level 98.8 %
     Extraction speed 3.5 X
     Track quality 100.0 %
     Test CRC C2B13FB3
     Copy CRC C2B13FB3
     Accurately ripped (confidence 1)  [7640662C]  (AR v2)
     Copy OK
Track  2
     Filename F:\MUSIC\0\POSTS\Lou Pardini - Look The Other Way [Japan] (1998)\02 - We've Got So Far To Go.wav
     Pre-gap length  0:00:00.12
     Peak level 98.8 %
     Extraction speed 3.3 X
     Track quality 99.9 %
     Test CRC 76697F16
     Copy CRC 76697F16
     Accurately ripped (confidence 1)  [093A8988]  (AR v2)
     Copy OK
Track  3
     Filename F:\MUSIC\0\POSTS\Lou Pardini - Look The Other Way [Japan] (1998)\03 - Love Is A Hurtin' Thing.wav
     Pre-gap length  0:00:02.37
     Peak level 88.1 %
     Extraction speed 4.4 X
     Track quality 100.0 %
     Test CRC 8370BE79
     Copy CRC 8370BE79
     Accurately ripped (confidence 1)  [0066C22C]  (AR v2)
     Copy OK
Track  4
     Filename F:\MUSIC\0\POSTS\Lou Pardini - Look The Other Way [Japan] (1998)\04 - Time Out For Love.wav
     Pre-gap length  0:00:00.67
     Peak level 98.8 %
     Extraction speed 4.6 X
     Track quality 100.0 %
     Test CRC 7410E08E
     Copy CRC 7410E08E
     Accurately ripped (confidence 1)  [D97B4AF7]  (AR v2)
     Copy OK
Track  5
     Filename F:\MUSIC\0\POSTS\Lou Pardini - Look The Other Way [Japan] (1998)\05 - I'll Always Be There.wav
     Pre-gap length  0:00:01.04
     Peak level 98.8 %
     Extraction speed 4.6 X
     Track quality 100.0 %
     Test CRC 487EEC6D
     Copy CRC 487EEC6D
     Accurately ripped (confidence 1)  [C3429A84]  (AR v2)
     Copy OK
Track  6
     Filename F:\MUSIC\0\POSTS\Lou Pardini - Look The Other Way [Japan] (1998)\06 - Look The Other Way.wav
     Peak level 98.8 %
     Extraction speed 5.1 X
     Track quality 100.0 %
     Test CRC 661E5316
     Copy CRC 661E5316
     Accurately ripped (confidence 1)  [10C5CD3B]  (AR v2)
     Copy OK
Track  7
     Filename F:\MUSIC\0\POSTS\Lou Pardini - Look The Other Way [Japan] (1998)\07 - Place In My Heart.wav
     Peak level 98.8 %
     Extraction speed 5.3 X
     Track quality 100.0 %
     Test CRC 4295403B
     Copy CRC 4295403B
     Accurately ripped (confidence 1)  [B0D9EB02]  (AR v2)
     Copy OK
Track  8
     Filename F:\MUSIC\0\POSTS\Lou Pardini - Look The Other Way [Japan] (1998)\08 - Method To The Madness.wav
     Peak level 98.8 %
     Extraction speed 5.7 X
     Track quality 100.0 %
     Test CRC 357CBCF6
     Copy CRC 357CBCF6
     Accurately ripped (confidence 1)  [24F11DF6]  (AR v2)
     Copy OK
Track  9
     Filename F:\MUSIC\0\POSTS\Lou Pardini - Look The Other Way [Japan] (1998)\09 - How Can I Stop Loving You.wav
     Peak level 86.7 %
     Extraction speed 5.9 X
     Track quality 100.0 %
     Test CRC 1DE742DA
     Copy CRC 1DE742DA
     Accurately ripped (confidence 1)  [65658B30]  (AR v2)
     Copy OK
Track 10
     Filename F:\MUSIC\0\POSTS\Lou Pardini - Look The Other Way [Japan] (1998)\10 - I Just Had To Fall.wav
     Pre-gap length  0:00:00.71
     Peak level 98.8 %
     Extraction speed 6.0 X
     Track quality 100.0 %
     Test CRC 596290D2
     Copy CRC 596290D2
     Accurately ripped (confidence 1)  [E30104F5]  (AR v2)
     Copy OK
Track 11
     Filename F:\MUSIC\0\POSTS\Lou Pardini - Look The Other Way [Japan] (1998)\11 - Take It Away.wav
     Pre-gap length  0:00:02.37
     Peak level 98.8 %
     Extraction speed 6.5 X
     Track quality 100.0 %
     Test CRC 41D84817
     Copy CRC 41D84817
     Accurately ripped (confidence 1)  [476A3D9D]  (AR v2)
     Copy OK
Track 12
     Filename F:\MUSIC\0\POSTS\Lou Pardini - Look The Other Way [Japan] (1998)\12 - What Might Have Been.wav
     Pre-gap length  0:00:00.31
     Peak level 98.8 %
     Extraction speed 6.8 X
     Track quality 100.0 %
     Test CRC 2A10D5F8
     Copy CRC 2A10D5F8
     Accurately ripped (confidence 1)  [9C94A42E]  (AR v2)
     Copy OK
All tracks accurately ripped
No errors occurred
End of status report
==== Log checksum A1BB52C77F11A1E5B54C3A5691DB77135FF992DEB7BEEB36D9B7904AE5C1825A ====
Код:
REM GENRE Rock
REM DATE 1998
REM DISCID A40CF90C
REM COMMENT "ExactAudioCopy v1.0b3"
PERFORMER "Lou Pardini"
TITLE "Look The Other Way"
FILE "01 - Better Late Than Never.wav" WAVE
  TRACK 01 AUDIO
    TITLE "Better Late Than Never"
    PERFORMER "Lou Pardini"
    PREGAP 00:00:37
    INDEX 01 00:00:00
  TRACK 02 AUDIO
    TITLE "We've Got So Far To Go"
    PERFORMER "Lou Pardini"
    INDEX 00 05:22:71
FILE "02 - We've Got So Far To Go.wav" WAVE
    INDEX 01 00:00:00
  TRACK 03 AUDIO
    TITLE "Love Is A Hurtin' Thing"
    PERFORMER "Lou Pardini"
    INDEX 00 04:40:03
FILE "03 - Love Is A Hurtin' Thing.wav" WAVE
    INDEX 01 00:00:00
  TRACK 04 AUDIO
    TITLE "Time Out For Love"
    PERFORMER "Lou Pardini"
    INDEX 00 04:53:33
FILE "04 - Time Out For Love.wav" WAVE
    INDEX 01 00:00:00
  TRACK 05 AUDIO
    TITLE "I'll Always Be There"
    PERFORMER "Lou Pardini"
    INDEX 00 04:23:71
FILE "05 - I'll Always Be There.wav" WAVE
    INDEX 01 00:00:00
FILE "06 - Look The Other Way.wav" WAVE
  TRACK 06 AUDIO
    TITLE "Look The Other Way"
    PERFORMER "Lou Pardini"
    INDEX 01 00:00:00
FILE "07 - Place In My Heart.wav" WAVE
  TRACK 07 AUDIO
    TITLE "Place In My Heart"
    PERFORMER "Lou Pardini"
    INDEX 01 00:00:00
FILE "08 - Method To The Madness.wav" WAVE
  TRACK 08 AUDIO
    TITLE "Method To The Madness"
    PERFORMER "Lou Pardini"
    INDEX 01 00:00:00
FILE "09 - How Can I Stop Loving You.wav" WAVE
  TRACK 09 AUDIO
    TITLE "How Can I Stop Loving You"
    PERFORMER "Lou Pardini"
    INDEX 01 00:00:00
  TRACK 10 AUDIO
    TITLE "I Just Had To Fall"
    PERFORMER "Lou Pardini"
    INDEX 00 04:23:54
FILE "10 - I Just Had To Fall.wav" WAVE
    INDEX 01 00:00:00
  TRACK 11 AUDIO
    TITLE "Take It Away"
    PERFORMER "Lou Pardini"
    INDEX 00 04:14:01
FILE "11 - Take It Away.wav" WAVE
    INDEX 01 00:00:00
  TRACK 12 AUDIO
    TITLE "What Might Have Been"
    PERFORMER "Lou Pardini"
    INDEX 00 04:28:06
FILE "12 - What Might Have Been.wav" WAVE
    INDEX 01 00:00:00
Правила, инструкции, FAQ!!!
Торрент  Добавлен [26 мар 2019, 19:48] Скачать торрент Магнет ссылка
Скачать торрент
[ Размер 12.06 КБ / Просмотров 1 ]

Статус
Проверен 
 
Размер  488.73 МБ
Приватный: Нет (DHT включён)
.torrent скачан  0
 


     Отправить личное сообщение
   
Страница 1 из 1
Показать сообщения за:  Поле сортировки  
Начать новую тему Ответить на тему


Сейчас этот форум просматривают: нет зарегистрированных пользователей и гости: 0


Вы не можете начинать темы
Вы не можете отвечать на сообщения
Вы не можете редактировать свои сообщения
Вы не можете удалять свои сообщения
Вы не можете добавлять вложения

Перейти:  
cron