Начать новую тему Ответить на тему
Статистика раздачи
Размер: 324.92 МБ | Добавлен: 26 мар 2019, 20:37 | Скачали: 0
Сидеров: 59  [0 байт/сек]    Личеров: 0  [0 байт/сек]
Пред. тема | След. тема 

Автор
Сообщение

СообщениеДобавлено: 26 мар 2019, 20:37 

Ответить с цитатой 

Little River Band-Test of Time
Жанр: AOR/Rock
Год выпуска диска: 2oo4
Производитель диска: Australia
Аудио кодек: FLAC
Тип рипа: image+.cue
Битрейт аудио: lossless
Продолжительность: 48:11
Трэклист:
1 The long goodbye 4:42
2 Should i go 4:57
3 Back in your arms 3:44
4 Old money 4:26
5 Hold on 4:42
6 Enlighten me 4:30
7 Forever now 3:49
8 Can't get you outta my heart 4:17
9 I've met love before 3:54
10 I'm waiting 5:39
11 There's a bus leaving 3:35
Доп. информация: Чрезвычайно красивый и мелодичный альбом!
Little River Band is considered to be among Australia's most significant bands. In May 2001 the Australasian Performing Right Association (APRA), as part of its 75th Anniversary celebrations, named "Cool Change" as one of the Top 30 Australian songs of all time. According to BMI, Reminiscing has achieved 5 million airplay status on America radio, and Lady is close behind with over 4 million airplays. LRB was inducted into the Australian Recording Industry Association (ARIA) Hall of Fame at the 18th Annual ARIA Music Awards of 2004.
Exact Audio Copy V0.99 prebeta 4 from 23. January 2008
EAC extraction logfile from 30. March 2010, 15:28
Little River Band / Test of Time
Used drive : ASUS DRW-1814BL Adapter: 0 ID: 0
Read mode : Secure
Utilize accurate stream : Yes
Defeat audio cache : Yes
Make use of C2 pointers : No
Read offset correction : 6
Overread into Lead-In and Lead-Out : No
Fill up missing offset samples with silence : Yes
Delete leading and trailing silent blocks : No
Null samples used in CRC calculations : No
Used interface : Installed external ASPI interface
Used output format : User Defined Encoder
Selected bitrate : 768 kBit/s
Quality : High
Add ID3 tag : No
Command line compressor : C:\Program Files\Exact Audio Copy\Flac\flac.exe
Additional command line options : -8 -V -T "ARTIST=%a" -T "TITLE=%t" -T "ALBUM=%g" -T "DATE=%y" -T "TRACKNUMBER=%n" -T "GENRE=%m" -T "COMMENT=EAC FLAC -8" %s
TOC of the extracted CD
Track | Start | Length | Start sector | End sector
---------------------------------------------------------
1 | 0:00.00 | 4:41.64 | 0 | 21138
2 | 4:41.64 | 4:56.64 | 21139 | 43402
3 | 9:38.53 | 3:42.46 | 43403 | 60098
4 | 13:21.24 | 4:29.49 | 60099 | 80322
5 | 17:50.73 | 4:44.13 | 80323 | 101635
6 | 22:35.11 | 4:25.71 | 101636 | 121581
7 | 27:01.07 | 3:49.27 | 121582 | 138783
8 | 30:50.34 | 4:15.69 | 138784 | 157977
9 | 35:06.28 | 3:54.26 | 157978 | 175553
10 | 39:00.54 | 5:37.35 | 175554 | 200863
11 | 44:38.14 | 3:32.66 | 200864 | 216829
Range status and errors
Selected range
Filename D:\LRB Test\Little River Band - Test of Time.wav
Peak level 98.8 %
Range quality 100.0 %
Test CRC 4F53F662
Copy CRC 4F53F662
Copy OK
No errors occurred
AccurateRip summary
Track 1 not present in database
Track 2 not present in database
Track 3 not present in database
Track 4 not present in database
Track 5 not present in database
Track 6 not present in database
Track 7 not present in database
Track 8 not present in database
Track 9 not present in database
Track 10 not present in database
Track 11 not present in database
None of the tracks are present in the AccurateRip database
End of status report
Правила, инструкции, FAQ!!!
Торрент  Добавлен [26 мар 2019, 20:37] Скачать торрент Магнет ссылка
Скачать торрент
[ Размер 13.55 КБ / Просмотров 8 ]

Статус
Проверен 
 
Размер  324.92 МБ
Приватный: Нет (DHT включён)
.torrent скачан  0
 


     Отправить личное сообщение
   
Страница 1 из 1
Показать сообщения за:  Поле сортировки  
Начать новую тему Ответить на тему


Сейчас этот форум просматривают: нет зарегистрированных пользователей и гости: 0


Вы не можете начинать темы
Вы не можете отвечать на сообщения
Вы не можете редактировать свои сообщения
Вы не можете удалять свои сообщения
Вы не можете добавлять вложения

Перейти:  
cron