Начать новую тему Ответить на тему
Статистика раздачи
Размер: 656.57 МБ | Добавлен: 26 мар 2019, 20:09 | Скачали: 0
Сидеров: 0  [0 байт/сек]    Личеров: 0  [0 байт/сек]
Пред. тема | След. тема 

Автор
Сообщение

СообщениеДобавлено: 26 мар 2019, 20:09 

Ответить с цитатой 


Collection
Жанр: AOR | Pop Rock
Носитель: CD
Год издания: 1986 - 1990
Страна исполнителя (группы): Canada
Аудиокодек: FLAC (*.flac)
Тип рипа: image+.cue
Битрейт аудио: lossless
Источник (релизер): alzal (спасибо !!)
Наличие сканов в содержимом раздачи: да
Треклист:
01. Thin Red Line (4:58)
02. Don't Forget Me (When I'm Gone) (4:08)
03. Closer To You (3:37)
04. Vanishing Tribe (4:07)
05. Looking At A Picture (4:03)
06. The Secret (0:48)
07. Ancient Evenings (4:55)
08. Ecstacy (4:26)
09. Someday (3:38)
10. I Will Be There (3:29)
11. You're What I Look For (3:51)
Код:
Exact Audio Copy V1.3 from 2. September 2016
Отчёт EAC об извлечении, выполненном 29. июля 2018, 18:46
Glass Tiger / The Thin Red Line (0 7777 46313 2 7)
Дисковод: PLEXTOR BD-R  PX-B950SA   Adapter: 1  ID: 0
Режим чтения                 : Достоверность
Использование точного потока : Да
Отключение кэша аудио        : Да
Использование указателей C2  : Нет
Коррекция смещения при чтении                     : 6
Способность читать области Lead-in и Lead-out     : Нет
Заполнение пропущенных сэмплов тишиной            : Да
Удаление блоков с тишиной в начале и конце        : Нет
При вычислениях CRC использовались нулевые сэмплы : Да
Интерфейс                                         : Встроенный Win32-интерфейс для Win NT/2000
Выходной формат          : Пользовательский кодировщик
Выбранный битрейт        : 1024 kBit/s
Качество                 : Высокий
Добавление ID3-тега      : Нет
Утилита сжатия           : C:\Program Files (x86)\Exact Audio Copy\FLAC\FLAC.EXE
Дополнительные параметры : -6 -V -T "ARTIST=%artist%" -T "TITLE=%title%" -T "ALBUM=%albumtitle%" -T "DATE=%year%" -T "TRACKNUMBER=%tracknr%" -T "GENRE=%genre%" -T "COMMENT=%comment%" -T "BAND=%albuminterpret%" -T "ALBUMARTIST=%albuminterpret%" -T "COMPOSER=%composer%" %haslyrics%--tag-from-file=LYRICS="%lyricsfile%"%haslyrics% -T "DISCNUMBER=%cdnumber%" -T "TOTALDISCS=%totalcds%" -T "TOTALTRACKS=%numtracks%" %hascover%--picture="%coverfile%"%hascover% %source% -o %dest%
TOC извлечённого CD
     Трек |   Старт  | Длительность | Начальный сектор | Конечный сектор
    ---------------------------------------------------------------------
       1  |  0:00.32 |    4:57.60   |          32      |      22366
       2  |  4:58.17 |    4:08.18   |       22367      |      40984
       3  |  9:06.35 |    3:37.17   |       40985      |      57276
       4  | 12:43.52 |    4:06.38   |       57277      |      75764
       5  | 16:50.15 |    4:03.00   |       75765      |      93989
       6  | 20:53.15 |    0:47.40   |       93990      |      97554
       7  | 21:40.55 |    4:55.37   |       97555      |     119716
       8  | 26:36.17 |    4:25.60   |      119717      |     139651
       9  | 31:02.02 |    3:37.55   |      139652      |     155981
      10  | 34:39.57 |    3:28.73   |      155982      |     171654
      11  | 38:08.55 |    3:51.00   |      171655      |     188979
Характеристики диапазона извлечения и сообщения об ошибках
Выбранный диапазон
     Имя файла G:\RIP\Glass Tiger 1986 FLAC by alzal\Glass Tiger - The Thin Red Line (0 7777 46313 2 7).wav
     Пиковый уровень 100.0 %
     Скорость извлечения 3.1 X
     Качество диапазона 100.0 %
     CRC теста 4438A723
     CRC копии 4438A723
     Копирование... OK
Ошибок не произошло
AccurateRip: сводка
Трек  1  точность не определена (достоверность 4)  [F7476AAC], AccurateRip вернул [E208002F]  (AR v2)
Трек  2  точность не определена (достоверность 4)  [6CA02551], AccurateRip вернул [216A9366]  (AR v2)
Трек  3  точность не определена (достоверность 4)  [FF0B83A3], AccurateRip вернул [AD17E14E]  (AR v2)
Трек  4  точность не определена (достоверность 4)  [209056C8], AccurateRip вернул [740ED847]  (AR v2)
Трек  5  точность не определена (достоверность 4)  [3C60A7FF], AccurateRip вернул [C6E8120D]  (AR v2)
Трек  6  точность не определена (достоверность 4)  [1E64ED3E], AccurateRip вернул [3DC4F909]  (AR v2)
Трек  7  точность не определена (достоверность 4)  [2947CF3D], AccurateRip вернул [D1438F42]  (AR v2)
Трек  8  точность не определена (достоверность 4)  [3DB852A3], AccurateRip вернул [91F65843]  (AR v2)
Трек  9  точность не определена (достоверность 4)  [077095B6], AccurateRip вернул [D853EE90]  (AR v2)
Трек 10  точность не определена (достоверность 4)  [6DFA643E], AccurateRip вернул [97402E80]  (AR v2)
Трек 11  точность не определена (достоверность 4)  [E73578A2], AccurateRip вернул [080CAA98]  (AR v2)
Ни один трек не прошёл проверки на точность
В вашей базе может быть иной вариант штамповки диска
Конец отчёта
---- CUETools DB Plugin V2.1.6
[CTDB TOCID: tZVx7A3RUYdZjIn3J9Qr0etbzWU-] found
Submit result: tZVx7A3RUYdZjIn3J9Qr0etbzWU- has been confirmed
Track | CTDB Status
  1   | (1/1) Accurately ripped
  2   | (1/1) Accurately ripped
  3   | (1/1) Accurately ripped
  4   | (1/1) Accurately ripped
  5   | (1/1) Accurately ripped
  6   | (1/1) Accurately ripped
  7   | (1/1) Accurately ripped
  8   | (1/1) Accurately ripped
  9   | (1/1) Accurately ripped
 10   | (1/1) Accurately ripped
 11   | (1/1) Accurately ripped
==== Контрольная сумма отчёта 5D4F4C1C9E8214F56665382D6DC80B20CD33F441BD6666C301FEA08A01923463 ====
Код:
-----------------------
DON'T MODIFY THIS FILE
-----------------------
PERFORMER: auCDtect Task Manager, ver. 1.6.0 RC1 build 1.6.0.1
Copyright (c) 2008-2010 y-soft. All rights reserved
[url=http://y-soft.org]http://y-soft.org[/url]
ANALYZER: auCDtect: CD records authenticity detector, version 0.8.2
Copyright (c) 2004 Oleg Berngardt. All rights reserved.
Copyright (c) 2004 Alexander Djourik. All rights reserved.
FILE: Glass Tiger - The Thin Red Line (0 7777 46313 2 7).flac
  Size: 289586895 Hash: 0615FDD9D009FC87A8FD985D2FB40742 Accuracy: -m0
  Conclusion: CDDA 100%
  Signature: 4A519078C2D2C0AEBE71DA80A8292B50A1CBF5E5
Код:
foobar2000 1.2.9 / Dynamic Range Meter 1.1.1
log date: 2018-07-31 22:47:28
--------------------------------------------------------------------------------
Analyzed: Glass Tiger / The Thin Red Line (0 7777 46313 2 7)
--------------------------------------------------------------------------------
DR         Peak         RMS     Duration Track
--------------------------------------------------------------------------------
DR13       0.00 dB   -14.76 dB      4:58 01-Thin Red Line
DR12       0.00 dB   -13.29 dB      4:08 02-Don't Forget Me (When I'm Gone)
DR12       0.00 dB   -13.56 dB      3:37 03-Closer To You
DR13       0.00 dB   -14.34 dB      4:07 04-Vanishing Tribe
DR12       0.00 dB   -13.87 dB      4:03 05-Looking At A Picture
DR10      -3.01 dB   -15.65 dB      0:48 06-The Secret
DR12       0.00 dB   -14.03 dB      4:55 07-Ancient Evenings
DR11      -0.15 dB   -13.80 dB      4:26 08-Ecstacy
DR13      -0.16 dB   -14.56 dB      3:38 09-Someday
DR12       0.00 dB   -14.06 dB      3:29 10-I Will Be There
DR12       0.00 dB   -13.43 dB      3:51 11-You're What I Look For
--------------------------------------------------------------------------------
Number of tracks:  11
Official DR value: DR12
Samplerate:        44100 Hz
Channels:          2
Bits per sample:   16
Bitrate:           919 kbps
Codec:             FLAC
================================================================================
Код:
[url=https://www.discogs.com/Glass-Tiger-The-Thin-Red-Line/release/6293068]https://www.discogs.com/Glass-Tiger-The-Thin-Red-Line/release/6293068[/url]
#777Треклист:
01. Blinded (4:39)
02. Animal Heart (3:51)
03. Let's Talk (4:24)
04. Where Did Our Love Go (4:32)
05. My Town (4:50)
06. The Rhythm Of Your Love (4:38)
07. Spanish Slumber (1:30)
08. Simple Mission (4:35)
09. Stand Or Fall (4:00)
10. Rescued (By The Arms Of Love) (4:16)
11. One To One (4:31)
12. One Night Alone (4:06)
13. (She Said) Love Me Like A Man (4:10)
Код:
Exact Audio Copy V1.3 from 2. September 2016
Отчёт EAC об извлечении, выполненном 29. июля 2018, 19:25
Glass Tiger / Simple Mission (7 92922 2)
Дисковод: PLEXTOR BD-R  PX-B950SA   Adapter: 1  ID: 0
Режим чтения                 : Достоверность
Использование точного потока : Да
Отключение кэша аудио        : Да
Использование указателей C2  : Нет
Коррекция смещения при чтении                     : 6
Способность читать области Lead-in и Lead-out     : Нет
Заполнение пропущенных сэмплов тишиной            : Да
Удаление блоков с тишиной в начале и конце        : Нет
При вычислениях CRC использовались нулевые сэмплы : Да
Интерфейс                                         : Встроенный Win32-интерфейс для Win NT/2000
Выходной формат          : Пользовательский кодировщик
Выбранный битрейт        : 1024 kBit/s
Качество                 : Высокий
Добавление ID3-тега      : Нет
Утилита сжатия           : C:\Program Files (x86)\Exact Audio Copy\FLAC\FLAC.EXE
Дополнительные параметры : -6 -V -T "ARTIST=%artist%" -T "TITLE=%title%" -T "ALBUM=%albumtitle%" -T "DATE=%year%" -T "TRACKNUMBER=%tracknr%" -T "GENRE=%genre%" -T "COMMENT=%comment%" -T "BAND=%albuminterpret%" -T "ALBUMARTIST=%albuminterpret%" -T "COMPOSER=%composer%" %haslyrics%--tag-from-file=LYRICS="%lyricsfile%"%haslyrics% -T "DISCNUMBER=%cdnumber%" -T "TOTALDISCS=%totalcds%" -T "TOTALTRACKS=%numtracks%" %hascover%--picture="%coverfile%"%hascover% %source% -o %dest%
TOC извлечённого CD
     Трек |   Старт  | Длительность | Начальный сектор | Конечный сектор
    ---------------------------------------------------------------------
       1  |  0:00.33 |    4:38.40   |          33      |      20922
       2  |  4:38.73 |    3:50.50   |       20923      |      38222
       3  |  8:29.48 |    4:23.47   |       38223      |      57994
       4  | 12:53.20 |    4:31.58   |       57995      |      78377
       5  | 17:25.03 |    4:49.57   |       78378      |     100109
       6  | 22:14.60 |    4:38.30   |      100110      |     120989
       7  | 26:53.15 |    1:29.50   |      120990      |     127714
       8  | 28:22.65 |    4:34.73   |      127715      |     148337
       9  | 32:57.63 |    3:59.60   |      148338      |     166322
      10  | 36:57.48 |    4:16.20   |      166323      |     185542
      11  | 41:13.68 |    4:30.45   |      185543      |     205837
      12  | 45:44.38 |    4:06.20   |      205838      |     224307
      13  | 49:50.58 |    4:09.47   |      224308      |     243029
Характеристики диапазона извлечения и сообщения об ошибках
Выбранный диапазон
     Имя файла G:\RIP\Glass Tiger 1990 FLAC by alzal\Glass Tiger - Simple Mission (7 92922 2).wav
     Пиковый уровень 100.0 %
     Скорость извлечения 8.5 X
     Качество диапазона 100.0 %
     CRC теста 037DA78A
     CRC копии 037DA78A
     Копирование... OK
Ошибок не произошло
AccurateRip: сводка
Трек  1  : извлечено точно (доверие 24)  [EAD39E44]  (AR v2)
Трек  2  : извлечено точно (доверие 23)  [BBC78355]  (AR v2)
Трек  3  : извлечено точно (доверие 24)  [28B71055]  (AR v2)
Трек  4  : извлечено точно (доверие 25)  [5142AD67]  (AR v2)
Трек  5  : извлечено точно (доверие 25)  [89941DE0]  (AR v2)
Трек  6  : извлечено точно (доверие 24)  [749AEB77]  (AR v2)
Трек  7  : извлечено точно (доверие 25)  [A604DE49]  (AR v2)
Трек  8  : извлечено точно (доверие 25)  [9D4BC4CD]  (AR v2)
Трек  9  : извлечено точно (доверие 25)  [07DCB176]  (AR v2)
Трек 10  : извлечено точно (доверие 25)  [6E2DAC0B]  (AR v2)
Трек 11  : извлечено точно (доверие 25)  [DAD84F1B]  (AR v2)
Трек 12  : извлечено точно (доверие 25)  [5CAE7A20]  (AR v2)
Трек 13  : извлечено точно (доверие 25)  [39716E41]  (AR v2)
Все треки извлечены точно
Конец отчёта
---- CUETools DB Plugin V2.1.6
[CTDB TOCID: JJJd.ZLjLH1RessNR65n9pd6x0g-] found
Submit result: JJJd.ZLjLH1RessNR65n9pd6x0g- has been confirmed
Track | CTDB Status
  1   | (47/47) Accurately ripped
  2   | (47/47) Accurately ripped
  3   | (47/47) Accurately ripped
  4   | (47/47) Accurately ripped
  5   | (47/47) Accurately ripped
  6   | (47/47) Accurately ripped
  7   | (47/47) Accurately ripped
  8   | (47/47) Accurately ripped
  9   | (47/47) Accurately ripped
 10   | (47/47) Accurately ripped
 11   | (47/47) Accurately ripped
 12   | (47/47) Accurately ripped
 13   | (47/47) Accurately ripped
==== Контрольная сумма отчёта 5BC35497570EE3D11472C70C80727424C53F5A3B3CB274B11EA0432A529BA388 ====
Код:
-----------------------
DON'T MODIFY THIS FILE
-----------------------
PERFORMER: auCDtect Task Manager, ver. 1.6.0 RC1 build 1.6.0.1
Copyright (c) 2008-2010 y-soft. All rights reserved
[url=http://y-soft.org]http://y-soft.org[/url]
ANALYZER: auCDtect: CD records authenticity detector, version 0.8.2
Copyright (c) 2004 Oleg Berngardt. All rights reserved.
Copyright (c) 2004 Alexander Djourik. All rights reserved.
FILE: Glass Tiger - Simple Mission (7 92922 2).flac
  Size: 376784350 Hash: 5DDB8C44CF4F0E319987A964FC9ED95F Accuracy: -m0
  Conclusion: CDDA 100%
  Signature: AA6614A6FAAC72E83F54CC4EBB57C0804FE53E26
Код:
foobar2000 1.2.9 / Dynamic Range Meter 1.1.1
log date: 2018-07-31 22:47:59
--------------------------------------------------------------------------------
Analyzed: Glass Tiger / Simple Mission (7 92922 2)
--------------------------------------------------------------------------------
DR         Peak         RMS     Duration Track
--------------------------------------------------------------------------------
DR12      -0.40 dB   -13.90 dB      4:39 01-Blinded
DR11       0.00 dB   -12.99 dB      3:51 02-Animal Heart
DR12      -0.01 dB   -13.65 dB      4:24 03-Let's Talk
DR12      -0.02 dB   -13.97 dB      4:32 04-Where Did Our Love Go
DR11      -0.01 dB   -12.87 dB      4:50 05-My Town
DR12       0.00 dB   -13.66 dB      4:38 06-The Rhythm Of Your Love
DR11      -6.49 dB   -20.10 dB      1:30 07-Spanish Slumber
DR12       0.00 dB   -13.56 dB      4:35 08-Simple Mission
DR12      -0.02 dB   -13.79 dB      4:00 09-Stand Or Fall
DR12       0.00 dB   -14.46 dB      4:16 10-Rescued  (By The Arms Of Love)
DR12      -0.06 dB   -13.78 dB      4:31 11-One To One
DR12      -0.21 dB   -13.65 dB      4:06 12-One Night Alone
DR12      -0.21 dB   -13.90 dB      4:10 13-(She Said) Love Me Like A Man
--------------------------------------------------------------------------------
Number of tracks:  13
Official DR value: DR12
Samplerate:        44100 Hz
Channels:          2
Bits per sample:   16
Bitrate:           930 kbps
Codec:             FLAC
================================================================================
Код:
[url=https://www.discogs.com/Glass-Tiger-Simple-Mission/release/2406221]https://www.discogs.com/Glass-Tiger-Simple-Mission/release/2406221[/url]
#7771986:
Al Connelly - Guitar
Wayne Parker - Bass
Alan Frew - Vocals
Michael Hanson - Drums
Sam Reid - Keyboards
Produced by: Jim Vallance
1990:
Alan Frew - Vocals
Al Connelly - Guitars
Wayne Parker - Electric Bass
Sam Reid - Keyboards
Правила, инструкции, FAQ!!!
Торрент  Добавлен [26 мар 2019, 20:09] Скачать торрент Магнет ссылка
Скачать торрент
[ Размер 16.59 КБ / Просмотров 2 ]

Статус
Проверен 
 
Размер  656.57 МБ
Приватный: Нет (DHT включён)
.torrent скачан  0
 


     Отправить личное сообщение
   
Страница 1 из 1
Показать сообщения за:  Поле сортировки  
Начать новую тему Ответить на тему


Сейчас этот форум просматривают: нет зарегистрированных пользователей и гости: 0


Вы не можете начинать темы
Вы не можете отвечать на сообщения
Вы не можете редактировать свои сообщения
Вы не можете удалять свои сообщения
Вы не можете добавлять вложения

Перейти:  
cron