Начать новую тему Ответить на тему
Статистика раздачи
Размер: 282.22 МБ | Добавлен: 26 мар 2019, 20:43 | Скачали: 0
Сидеров: 0  [0 байт/сек]    Личеров: 0  [0 байт/сек]
Пред. тема | След. тема 

Автор
Сообщение

СообщениеДобавлено: 26 мар 2019, 20:43 

Ответить с цитатой 

Momus / Tender Pervert
Жанр: Analog Baroque
Год издания диска: 1988
Страна: Scotland
Аудиокодек: FLAC (*.flac)
Тип рипа: tracks+.cue
Битрейт аудио: lossless
Продолжительность: 50:30
Источник (релизер): Diarreon

Наличие сканов в содержимом раздачи: нет
Треклист:
1. The Angels Are Voyeurs (2:47)
2. Love On Ice (3:54)
3. I Was A Maoist Intellectual (4:34)
4. The Homosexual (4:44)
5. Bishonen (7:41)
6. Right Hand Heart (3:39)
7. A Complete History Of Sexual Jealousy (Parts 17-24) (5:40)
8. Ice King (4:56)
9. In The Sanatorium (5:08)
10. The Charm Of Innocence (6:36)
11. The Angels Are Voyeurs (Reprise) (0:56)
Код:
Exact Audio Copy V0.99 prebeta 5 from 4. May 2009
EAC extraction logfile from 18. March 2011, 19:25
Momus / Tender Pervert
Used drive  : SONY    DVD RW AW-G170S   Adapter: 2  ID: 2
Read mode               : Secure
Utilize accurate stream : Yes
Defeat audio cache      : Yes
Make use of C2 pointers : No
Read offset correction                      : 48
Overread into Lead-In and Lead-Out          : No
Fill up missing offset samples with silence : Yes
Delete leading and trailing silent blocks   : No
Null samples used in CRC calculations       : Yes
Used interface                              : Native Win32 interface for Win NT & 2000
Gap handling                                : Appended to previous track
Used output format              : User Defined Encoder
Selected bitrate                : 320 kBit/s
Quality                         : High
Add ID3 tag                     : No
Command line compressor         : C:\Archivos de programa\Exact Audio Copy\Flac\flac.exe
Additional command line options : -V -8 -T "artist=%a" -T "title=%t" -T "album=%g" -T "date=%y" -T "tracknumber=%n" -T "genre=%m" %s
TOC of the extracted CD
     Track |   Start  |  Length  | Start sector | End sector
    ---------------------------------------------------------
        1  |  0:00.32 |  2:46.45 |        32    |    12526
        2  |  2:47.02 |  3:54.30 |     12527    |    30106
        3  |  6:41.32 |  4:34.33 |     30107    |    50689
        4  | 11:15.65 |  4:44.27 |     50690    |    72016
        5  | 16:00.17 |  7:41.13 |     72017    |   106604
        6  | 23:41.30 |  3:39.20 |    106605    |   123049
        7  | 27:20.50 |  5:39.42 |    123050    |   148516
        8  | 33:00.17 |  4:55.58 |    148517    |   170699
        9  | 37:56.00 |  5:07.55 |    170700    |   193779
       10  | 43:03.55 |  6:35.72 |    193780    |   223476
       11  | 49:39.52 |  0:56.35 |    223477    |   227711
Track  1
     Filename C:\EACRIPS\Momus - 1988 - Tender Pervert\01 - The Angels Are Voyeurs.wav
     Pre-gap length  0:00:02.42
     Peak level 62.6 %
     Track quality 100.0 %
     Test CRC 49AB0FB0
     Copy CRC 49AB0FB0
     Cannot be verified as accurate (confidence 3)  [71CE6945], AccurateRip returned [C7086F24]
     Copy OK
Track  2
     Filename C:\EACRIPS\Momus - 1988 - Tender Pervert\02 - Love On Ice.wav
     Pre-gap length  0:00:02.60
     Peak level 77.7 %
     Track quality 100.0 %
     Test CRC D2DA9BED
     Copy CRC D2DA9BED
     Cannot be verified as accurate (confidence 3)  [98DF11B1], AccurateRip returned [CE5FE515]
     Copy OK
Track  3
     Filename C:\EACRIPS\Momus - 1988 - Tender Pervert\03 - I Was A Maoist Intelectual.wav
     Pre-gap length  0:00:02.29
     Peak level 65.2 %
     Track quality 100.0 %
     Test CRC EF78D26A
     Copy CRC EF78D26A
     Cannot be verified as accurate (confidence 3)  [1FC21B05], AccurateRip returned [E3076C9B]
     Copy OK
Track  4
     Filename C:\EACRIPS\Momus - 1988 - Tender Pervert\04 - The Homosexual.wav
     Pre-gap length  0:00:02.73
     Peak level 66.8 %
     Track quality 100.0 %
     Test CRC 419C86C7
     Copy CRC 419C86C7
     Cannot be verified as accurate (confidence 3)  [3CD0DEE9], AccurateRip returned [7849B9E6]
     Copy OK
Track  5
     Filename C:\EACRIPS\Momus - 1988 - Tender Pervert\05 - Bishonen.wav
     Pre-gap length  0:00:02.02
     Peak level 67.5 %
     Track quality 100.0 %
     Test CRC 788CC120
     Copy CRC 788CC120
     Cannot be verified as accurate (confidence 3)  [93ED3A7B], AccurateRip returned [E8DDA6B5]
     Copy OK
Track  6
     Filename C:\EACRIPS\Momus - 1988 - Tender Pervert\06 - Right Hand Heart.wav
     Pre-gap length  0:00:01.66
     Peak level 60.5 %
     Track quality 100.0 %
     Test CRC F2DF8CBB
     Copy CRC F2DF8CBB
     Cannot be verified as accurate (confidence 3)  [5BD03782], AccurateRip returned [F59269FD]
     Copy OK
Track  7
     Filename C:\EACRIPS\Momus - 1988 - Tender Pervert\07 - A Complete History Of Sexual Jealousy (Parts 17-24).wav
     Pre-gap length  0:00:03.13
     Peak level 81.1 %
     Track quality 100.0 %
     Test CRC 6D26469F
     Copy CRC 6D26469F
     Cannot be verified as accurate (confidence 3)  [1DB6766E], AccurateRip returned [DFE44807]
     Copy OK
Track  8
     Filename C:\EACRIPS\Momus - 1988 - Tender Pervert\08 - Ice King.wav
     Pre-gap length  0:00:01.96
     Peak level 75.7 %
     Track quality 100.0 %
     Test CRC 2B7F2D6E
     Copy CRC 2B7F2D6E
     Cannot be verified as accurate (confidence 3)  [6C1E6932], AccurateRip returned [8DA62863]
     Copy OK
Track  9
     Filename C:\EACRIPS\Momus - 1988 - Tender Pervert\09 - In The Sanatorium.wav
     Pre-gap length  0:00:01.84
     Peak level 57.6 %
     Track quality 100.0 %
     Test CRC 2523086A
     Copy CRC 2523086A
     Cannot be verified as accurate (confidence 3)  [AB6023B8], AccurateRip returned [65DCBE2C]
     Copy OK
Track 10
     Filename C:\EACRIPS\Momus - 1988 - Tender Pervert\10 - The Charm Of Innocence.wav
     Pre-gap length  0:00:03.00
     Peak level 63.0 %
     Track quality 100.0 %
     Test CRC DEC8A5E5
     Copy CRC DEC8A5E5
     Cannot be verified as accurate (confidence 3)  [8AEEF460], AccurateRip returned [A96FA2AD]
     Copy OK
Track 11
     Filename C:\EACRIPS\Momus - 1988 - Tender Pervert\11 - The Angels Are Voyeurs (Reprise).wav
     Pre-gap length  0:00:03.36
     Peak level 42.2 %
     Track quality 99.8 %
     Test CRC B766BE18
     Copy CRC B766BE18
     Cannot be verified as accurate (confidence 3)  [9BF43781], AccurateRip returned [DC3A416C]
     Copy OK
No tracks could be verified as accurate
You may have a different pressing from the one(s) in the database
No errors occurred
End of status report
Код:
REM GENRE Indie
REM DATE 1988
REM DISCID A40BDC0B
REM COMMENT "ExactAudioCopy v0.99pb5"
FILE "01 - The Angels Are Voyeurs.wav" WAVE
  TRACK 01 AUDIO
    PREGAP 00:00:32
    INDEX 01 00:00:00
  TRACK 02 AUDIO
    INDEX 00 02:44:00
FILE "02 - Love On Ice.wav" WAVE
    INDEX 01 00:00:00
  TRACK 03 AUDIO
    INDEX 00 03:52:08
FILE "03 - I Was A Maoist Intelectual.wav" WAVE
    INDEX 01 00:00:00
  TRACK 04 AUDIO
    INDEX 00 04:31:53
FILE "04 - The Homosexual.wav" WAVE
    INDEX 01 00:00:00
  TRACK 05 AUDIO
    INDEX 00 04:42:25
FILE "05 - Bishonen.wav" WAVE
    INDEX 01 00:00:00
  TRACK 06 AUDIO
    INDEX 00 07:39:38
FILE "06 - Right Hand Heart.wav" WAVE
    INDEX 01 00:00:00
  TRACK 07 AUDIO
    INDEX 00 03:36:10
FILE "07 - A Complete History Of Sexual Jealousy (Parts 17-24).wav" WAVE
    INDEX 01 00:00:00
  TRACK 08 AUDIO
    INDEX 00 05:37:45
FILE "08 - Ice King.wav" WAVE
    INDEX 01 00:00:00
  TRACK 09 AUDIO
    INDEX 00 04:53:70
FILE "09 - In The Sanatorium.wav" WAVE
    INDEX 01 00:00:00
  TRACK 10 AUDIO
    INDEX 00 05:04:55
FILE "10 - The Charm Of Innocence.wav" WAVE
    INDEX 01 00:00:00
  TRACK 11 AUDIO
    INDEX 00 06:32:45
FILE "11 - The Angels Are Voyeurs (Reprise).wav" WAVE
    INDEX 01 00:00:00
Материал из Википедии — свободной энциклопедии
Момус (настоящее имя — Ник Карри, англ. Nick Currie, род. 11 февраля 1960 года в Пэйсли, Шотландия) — музыкант и блоггер, взявший в качестве псевдонима имя бога насмешки из греческой мифологии. Момус - оригинальный сочинитель и исполнитель музыки, которую сложно отнести к какому-то определенному направлению. Момус относит свое творчество к постмодерну и считает себя изобретателем нового музыкального стиля — аналогового барокко. Глубокие осмысленные тексты песен Момуса зачастую затрагивают табуированные темы.
Правила, инструкции, FAQ!!!
Торрент  Добавлен [26 мар 2019, 20:43] Скачать торрент Магнет ссылка
Скачать торрент
[ Размер 12.27 КБ / Просмотров 1 ]

Статус
Проверен 
 
Размер  282.22 МБ
Приватный: Нет (DHT включён)
.torrent скачан  0
 


     Отправить личное сообщение
   
Страница 1 из 1
Показать сообщения за:  Поле сортировки  
Начать новую тему Ответить на тему


Сейчас этот форум просматривают: нет зарегистрированных пользователей и гости: 0


Вы не можете начинать темы
Вы не можете отвечать на сообщения
Вы не можете редактировать свои сообщения
Вы не можете удалять свои сообщения
Вы не можете добавлять вложения

Перейти:  
cron