Начать новую тему Ответить на тему
Статистика раздачи
Размер: 1.01 ГБ | Добавлен: 07 янв 2020, 21:22 | Скачали: 0
Сидеров: 0  [0 байт/сек]    Личеров: 0  [0 байт/сек]
Пред. тема | След. тема 

Автор
Сообщение

СообщениеДобавлено: 07 янв 2020, 21:22 

Ответить с цитатой 

CunninLynguists - Oneirology (Limited Edition Gatefold)
Жанр: Amazing Hip-Hop, Alternative Hip-Hop
Носитель: LP
Год выпуска: 2011
Лейбл: A Piece Of Strange Music / HHV164
Страна-производитель: USA
Аудио кодек: FLAC
Тип рипа: tracks
Формат записи: 24/96
Формат раздачи: 24/96
Продолжительность: 01:21:35

Треклист:
01. Predormitum (Prologue)
02. Darkness (Dream On) (Feat. Anna Wise of Sonnymoon)
03. Phantasmata
04. Hard As They Come (Act I) (feat. Freddie Gibbs)
05. Murder (Act II) (feat. Big K.R.I.T.)
06. My Habit (I Haven't Changed)
07. Get Ignorant
08. Shattered Dreams
09. Stars Shine Brightest (In The Darkest Of Night) (feat. Rick Warren)
10. So As Not To Wake You (Interlude)
11. Enemies With Benefits (feat. Tonedeff)
12. Looking Back (feat. Anna Wise of Sonnymoon)
13. Dreams (feat. Tunji & B.J. The Chicago Kid)
14. Hypnopomp (Epilogue) (feat. Bianca Spriggs)
15. Embers
Источник оцифровки: третьим лицом
Код класса состояния винила: Mint
Устройство воспроизведения: Dual CS505-4
Головка звукоснимателя: Linn K9
Предварительный усилитель: JVC AX-220
АЦП: Asus Xonar Essence STX
Программа-оцифровщик: Audacity 2.0 ASIO custom build
Обработка: нет
foobar2000 1.2.9 / Dynamic Range Meter 1.1.1
log date: 2017-10-14 11:52:34
--------------------------------------------------------------------------------
Analyzed: Cunninlynguists / Oneirology
--------------------------------------------------------------------------------
DR Peak RMS Duration Track
--------------------------------------------------------------------------------
DR11 -0.07 dB -13.34 dB 4:12 A1-Predormitum (Prologue)
DR11 -1.15 dB -13.56 dB 3:59 A2-Darkness (Dream On) (feat. Anna Wise Of Sonnymoon)
DR12 -1.16 dB -15.84 dB 1:55 A3-Phantasmata
DR10 -1.30 dB -13.51 dB 4:20 B1-Hard As They Come (Act I) (feat. Freddie Gibbs)
DR11 -0.12 dB -15.14 dB 3:25 B2-Murder (Act II) (feat. Big K.R.I.T.
DR10 -1.02 dB -12.92 dB 2:03 B3-My Habit (I Haven't Changed)
DR11 -1.73 dB -15.21 dB 4:36 B4-Get Ignorant
DR12 -0.34 dB -16.05 dB 3:44 C1-Shattered Dreams
DR13 -0.06 dB -14.88 dB 4:04 C2-Stars Shine Brightest (In The Darkest Of Night) (feat. Rick Warren)
DR11 -1.44 dB -14.76 dB 4:44 C3-Enemies With Benefits (feat. Tonedeff)
DR11 -0.39 dB -13.28 dB 1:24 C3-So As Not To Wake You (Interlude)
DR11 -0.11 dB -13.44 dB 2:49 D1-Looking Back (feat. Anna Wise Of Sonnymoon)
DR11 -0.06 dB -13.19 dB 5:14 D2-Dreams (feat. Tunji & B.J. The Chicago Kid)
DR13 -2.08 dB -19.42 dB 3:04 D3-Hypnopomp (Epilogue) (feat. Bianca Spriggs)
DR13 -0.66 dB -16.98 dB 1:37 D4-Embers
--------------------------------------------------------------------------------
Number of tracks: 15
Official DR value: DR11
Samplerate: 96000 Hz
Channels: 2
Bits per sample: 24
Bitrate: 2688 kbps
Codec: FLAC
================================================================================
Правила, инструкции, FAQ!!!
Торрент  Добавлен [07 янв 2020, 21:22] Скачать торрент Магнет ссылка
Скачать торрент
[ Размер 11.71 КБ / Просмотров 4 ]

Статус
Проверен 
 
Размер  1.01 ГБ
Приватный: Нет (DHT включён)
.torrent скачан  0
 


     Отправить личное сообщение
   
Страница 1 из 1
Показать сообщения за:  Поле сортировки  
Начать новую тему Ответить на тему


Сейчас этот форум просматривают: нет зарегистрированных пользователей и гости: 0


Вы не можете начинать темы
Вы не можете отвечать на сообщения
Вы не можете редактировать свои сообщения
Вы не можете удалять свои сообщения
Вы не можете добавлять вложения

Перейти:  
cron