Начать новую тему Ответить на тему
Статистика раздачи
Размер: 371.8 МБ | Добавлен: 26 мар 2019, 20:03 | Скачали: 0
Сидеров: 0  [0 байт/сек]    Личеров: 0  [0 байт/сек]
Пред. тема | След. тема 

Автор
Сообщение

СообщениеДобавлено: 26 мар 2019, 20:03 

Ответить с цитатой 

Yum Yum Children / Dufisized
Жанр: Alternative Rock
Страна-производитель диска
: USA
Год издания диска: 1995
Издатель (лейбл): Boot To Head Records
Номер по каталогу: BTHCD003
Страна: USA
Аудиокодек: FLAC (*.flac)
Тип рипа: image+.cue
Битрейт аудио: lossless
Продолжительность: 0:54:23
Источник (релизер): Оригинал
Наличие сканов в содержимом раздачи: да
01. motorbike 01:48
02. irrigate 03:04
03. she's leaving my way 02:28
04. the lord gave 03:31
05. blue 03:03
06. faces 02:56
07. life without Jesus 04:17
08. father to be 03:24
09. wondering 03:54
10. weepy girl 03:48
11. rocket ride 02:24
12. naked 03:26
13. guide me 02:33
14. any little everything 03:36
15. father your name 02:17
16. maranatha 04:11
17. take me 03:35
Код:
Exact Audio Copy V0.99 prebeta 3 from 28. July 2007
EAC extraction logfile from 26. October 2011, 12:08
Yum Yum Children / Dufisized
Used drive  : HL-DT-STDVD-RAM GH22LP20   Adapter: 0  ID: 0
Read mode               : Secure
Utilize accurate stream : Yes
Defeat audio cache      : Yes
Make use of C2 pointers : No
Read offset correction                      : 102
Overread into Lead-In and Lead-Out          : No
Fill up missing offset samples with silence : Yes
Delete leading and trailing silent blocks   : No
Null samples used in CRC calculations       : Yes
Used interface                              : Installed external ASPI interface
Used output format              : User Defined Encoder
Selected bitrate                : 768 kBit/s
Quality                         : High
Add ID3 tag                     : No
Command line compressor         : H:\Program Files\Exact Audio Copy\FLAC\FLAC.EXE
Additional command line options : -6 -V -T "ARTIST=%a" -T "TITLE=%t" -T "ALBUM=%g" -T "DATE=%y" -T "TRACKNUMBER=%n" -T "GENRE=%m" -T "COMMENT=%e" %s -o %d
TOC of the extracted CD
     Track |   Start  |  Length  | Start sector | End sector
    ---------------------------------------------------------
        1  |  0:00.00 |  1:48.46 |         0    |     8145
        2  |  1:48.46 |  3:04.63 |      8146    |    22008
        3  |  4:53.34 |  2:28.12 |     22009    |    33120
        4  |  7:21.46 |  3:31.28 |     33121    |    48973
        5  | 10:52.74 |  3:03.58 |     48974    |    62756
        6  | 13:56.57 |  2:56.31 |     62757    |    75987
        7  | 16:53.13 |  4:17.60 |     75988    |    95322
        8  | 21:10.73 |  3:24.71 |     95323    |   110693
        9  | 24:35.69 |  3:54.57 |    110694    |   128300
       10  | 28:30.51 |  3:48.04 |    128301    |   145404
       11  | 32:18.55 |  2:24.19 |    145405    |   156223
       12  | 34:42.74 |  3:26.06 |    156224    |   171679
       13  | 38:09.05 |  2:33.08 |    171680    |   183162
       14  | 40:42.13 |  3:36.72 |    183163    |   199434
       15  | 44:19.10 |  2:17.67 |    199435    |   209776
       16  | 46:37.02 |  4:11.01 |    209777    |   228602
       17  | 50:48.03 |  3:35.65 |    228603    |   244792
Range status and errors
Selected range
     Filename I:\RRR\Yum Yum Children – Dufisized\Yum Yum Children - Dufisized.wav
     Peak level 94.4 %
     Range quality 100.0 %
     Test CRC B22B8C0A
     Copy CRC B22B8C0A
     Copy OK
No errors occurred
AccurateRip summary
Track  1  not present in database
Track  2  not present in database
Track  3  not present in database
Track  4  not present in database
Track  5  not present in database
Track  6  not present in database
Track  7  not present in database
Track  8  not present in database
Track  9  not present in database
Track 10  not present in database
Track 11  not present in database
Track 12  not present in database
Track 13  not present in database
Track 14  not present in database
Track 15  not present in database
Track 16  not present in database
Track 17  not present in database
None of the tracks are present in the AccurateRip database
End of status report
Код:
REM GENRE Rock
REM DATE 1995
REM DISCID DC0CBF11
REM COMMENT "ExactAudioCopy v0.99pb3"
PERFORMER "Yum Yum Children"
TITLE "Dufisized"
FILE "Yum Yum Children - Dufisized.flac" WAVE
  TRACK 01 AUDIO
    TITLE "motorbike"
    PERFORMER "Yum Yum Children"
    FLAGS DCP
    INDEX 01 00:00:00
  TRACK 02 AUDIO
    TITLE "irrigate"
    PERFORMER "Yum Yum Children"
    FLAGS DCP
    INDEX 00 01:47:01
    INDEX 01 01:48:46
  TRACK 03 AUDIO
    TITLE "she's leaving my way"
    PERFORMER "Yum Yum Children"
    FLAGS DCP
    INDEX 00 04:51:64
    INDEX 01 04:53:34
  TRACK 04 AUDIO
    TITLE "the lord gave"
    PERFORMER "Yum Yum Children"
    FLAGS DCP
    INDEX 00 07:20:01
    INDEX 01 07:21:46
  TRACK 05 AUDIO
    TITLE "blue"
    PERFORMER "Yum Yum Children"
    FLAGS DCP
    INDEX 00 10:51:29
    INDEX 01 10:52:74
  TRACK 06 AUDIO
    TITLE "faces"
    PERFORMER "Yum Yum Children"
    FLAGS DCP
    INDEX 00 13:55:12
    INDEX 01 13:56:57
  TRACK 07 AUDIO
    TITLE "life without Jesus"
    PERFORMER "Yum Yum Children"
    FLAGS DCP
    INDEX 00 16:52:28
    INDEX 01 16:53:13
  TRACK 08 AUDIO
    TITLE "father to be"
    PERFORMER "Yum Yum Children"
    FLAGS DCP
    INDEX 00 21:08:28
    INDEX 01 21:10:73
  TRACK 09 AUDIO
    TITLE "wondering"
    PERFORMER "Yum Yum Children"
    FLAGS DCP
    INDEX 00 24:33:24
    INDEX 01 24:35:69
  TRACK 10 AUDIO
    TITLE "weepy girl"
    PERFORMER "Yum Yum Children"
    FLAGS DCP
    INDEX 00 28:28:06
    INDEX 01 28:30:51
  TRACK 11 AUDIO
    TITLE "rocket ride"
    PERFORMER "Yum Yum Children"
    FLAGS DCP
    INDEX 00 32:17:10
    INDEX 01 32:18:55
  TRACK 12 AUDIO
    TITLE "naked"
    PERFORMER "Yum Yum Children"
    FLAGS DCP
    INDEX 00 34:41:29
    INDEX 01 34:42:74
  TRACK 13 AUDIO
    TITLE "guide me"
    PERFORMER "Yum Yum Children"
    FLAGS DCP
    INDEX 00 38:06:35
    INDEX 01 38:09:05
  TRACK 14 AUDIO
    TITLE "any little everything"
    PERFORMER "Yum Yum Children"
    FLAGS DCP
    INDEX 00 40:41:28
    INDEX 01 40:42:13
  TRACK 15 AUDIO
    TITLE "father your name"
    PERFORMER "Yum Yum Children"
    FLAGS DCP
    INDEX 00 44:17:40
    INDEX 01 44:19:10
  TRACK 16 AUDIO
    TITLE "maranatha"
    PERFORMER "Yum Yum Children"
    FLAGS DCP
    INDEX 00 46:34:32
    INDEX 01 46:37:02
  TRACK 17 AUDIO
    TITLE "take me"
    PERFORMER "Yum Yum Children"
    FLAGS DCP
    INDEX 01 50:48:03
R. Leon Goodenough - guitar
Сканы внутри
Правила, инструкции, FAQ!!!
Торрент  Добавлен [26 мар 2019, 20:03] Скачать торрент Магнет ссылка
Скачать торрент
[ Размер 15.41 КБ / Просмотров 1 ]

Статус
Проверен 
 
Размер  371.8 МБ
Приватный: Нет (DHT включён)
.torrent скачан  0
 


     Отправить личное сообщение
   
Страница 1 из 1
Показать сообщения за:  Поле сортировки  
Начать новую тему Ответить на тему


Сейчас этот форум просматривают: нет зарегистрированных пользователей и гости: 0


Вы не можете начинать темы
Вы не можете отвечать на сообщения
Вы не можете редактировать свои сообщения
Вы не можете удалять свои сообщения
Вы не можете добавлять вложения

Перейти:  
cron