Начать новую тему Ответить на тему
Статистика раздачи
Размер: 304.51 МБ | Добавлен: 26 мар 2019, 20:07 | Скачали: 0
Сидеров: 1  [0 байт/сек]    Личеров: 0  [0 байт/сек]
Пред. тема | След. тема 

Автор
Сообщение

СообщениеДобавлено: 26 мар 2019, 20:07 

Ответить с цитатой 

Pugwash - Jollity
Жанр: Alternative Rock / Power Pop
Год выпуска диска: 2005
Производитель диска: Ireland
Аудио кодек: FLAC
Тип рипа: tracks+.cue
Битрейт аудио: lossless
Продолжительность: 43:54
Трэклист:
01. Its Nice To Be Nice (3:26)
02. Black Dog (3:12)
03. A Rose in a Garden of Weeds (3:21)
04. I Want You Back In My Life (For Mam) (4:40)
05. This Could Be Good (3:11)
06. Poles Together (4:28)
07. Even I (5:09)
08. Something New (3:56)
09. Waltz # 714 (4:34)
10. Lullaby # 1 (2:16)
11. Anchor (5:40)
Доп. информация: What.cd (by xroomie)
REM GENRE Pop
REM DATE 2005
REM DISCID 840A4F0B
REM COMMENT "ExactAudioCopy v0.99pb4"
FILE "Pugwash - [2005] - Jollity [FLAC]\01 - Pugwash - It's Nice To Be Nice.wav" WAVE
TRACK 01 AUDIO
INDEX 01 00:00:00
TRACK 02 AUDIO
INDEX 00 03:25:38
FILE "Pugwash - [2005] - Jollity [FLAC]\02 - Pugwash - Black Dog.wav" WAVE
INDEX 01 00:00:00
TRACK 03 AUDIO
INDEX 00 03:11:19
FILE "Pugwash - [2005] - Jollity [FLAC]\03 - Pugwash - A Rose In A Garden Of Weeds.wav" WAVE
INDEX 01 00:00:00
TRACK 04 AUDIO
INDEX 00 03:19:06
FILE "Pugwash - [2005] - Jollity [FLAC]\04 - Pugwash - I Want You Back In My Life.wav" WAVE
INDEX 01 00:00:00
TRACK 05 AUDIO
INDEX 00 04:38:58
FILE "Pugwash - [2005] - Jollity [FLAC]\05 - Pugwash - This Could Be Good.wav" WAVE
INDEX 01 00:00:00
TRACK 06 AUDIO
INDEX 00 03:09:45
FILE "Pugwash - [2005] - Jollity [FLAC]\06 - Pugwash - Poles Together.wav" WAVE
INDEX 01 00:00:00
TRACK 07 AUDIO
INDEX 00 04:27:57
FILE "Pugwash - [2005] - Jollity [FLAC]\07 - Pugwash - Even I.wav" WAVE
INDEX 01 00:00:00
FILE "Pugwash - [2005] - Jollity [FLAC]\08 - Pugwash - Something New.wav" WAVE
TRACK 08 AUDIO
INDEX 01 00:00:00
TRACK 09 AUDIO
INDEX 00 03:54:61
FILE "Pugwash - [2005] - Jollity [FLAC]\09 - Pugwash - Waltz #714.wav" WAVE
INDEX 01 00:00:00
TRACK 10 AUDIO
INDEX 00 04:32:25
FILE "Pugwash - [2005] - Jollity [FLAC]\10 - Pugwash - Lullaby #1.wav" WAVE
INDEX 01 00:00:00
FILE "Pugwash - [2005] - Jollity [FLAC]\11 - Pugwash - Anchor.wav" WAVE
TRACK 11 AUDIO
INDEX 01 00:00:00
Exact Audio Copy V0.99 prebeta 4 from 23. January 2008
EAC extraction logfile from 24. July 2009, 0:52
Pugwash / Jollity
Used drive : TSSTcorpCDDVDW SH-S223F Adapter: 5 ID: 0
Read mode : Secure
Utilize accurate stream : Yes
Defeat audio cache : Yes
Make use of C2 pointers : No
Read offset correction : 6
Overread into Lead-In and Lead-Out : No
Fill up missing offset samples with silence : Yes
Delete leading and trailing silent blocks : No
Null samples used in CRC calculations : Yes
Used interface : Native Win32 interface for Win NT & 2000
Gap handling : Appended to previous track
Used output format : User Defined Encoder
Selected bitrate : 1024 kBit/s
Quality : High
Add ID3 tag : No
Command line compressor : C:\Program Files (x86)\Exact Audio Copy\FLAC\FLAC.EXE
Additional command line options : -V -8 -T "artist=%a" -T "title=%t" -T "album=%g" -T "date=%y" -T "tracknumber=%n" -T "genre=%m" %s
TOC of the extracted CD
Track | Start | Length | Start sector | End sector
---------------------------------------------------------
1 | 0:00.00 | 3:26.24 | 0 | 15473
2 | 3:26.24 | 3:11.72 | 15474 | 29870
3 | 6:38.21 | 3:21.06 | 29871 | 44951
4 | 9:59.27 | 4:40.59 | 44952 | 66010
5 | 14:40.11 | 3:11.46 | 66011 | 80381
6 | 17:51.57 | 4:28.51 | 80382 | 100532
7 | 22:20.33 | 5:09.08 | 100533 | 123715
8 | 27:29.41 | 3:56.62 | 123716 | 141477
9 | 31:26.28 | 4:34.26 | 141478 | 162053
10 | 36:00.54 | 2:16.19 | 162054 | 172272
11 | 38:16.73 | 5:42.61 | 172273 | 197983
Track 1
Filename M:\F L A C R I P S 3\VA\Pugwash - [2005] - Jollity [FLAC]\01 - Pugwash - It's Nice To Be Nice.wav
Pre-gap length 0:00:02.00
Peak level 98.8 %
Track quality 100.0 %
Test CRC CC0F67DE
Copy CRC CC0F67DE
Accurately ripped (confidence 2) [BBC79FB0]
Copy OK
Track 2
Filename M:\F L A C R I P S 3\VA\Pugwash - [2005] - Jollity [FLAC]\02 - Pugwash - Black Dog.wav
Pre-gap length 0:00:00.81
Peak level 98.8 %
Track quality 100.0 %
Test CRC AE949D68
Copy CRC AE949D68
Accurately ripped (confidence 2) [C926F7A5]
Copy OK
Track 3
Filename M:\F L A C R I P S 3\VA\Pugwash - [2005] - Jollity [FLAC]\03 - Pugwash - A Rose In A Garden Of Weeds.wav
Pre-gap length 0:00:00.70
Peak level 98.8 %
Track quality 100.0 %
Test CRC 01DFA530
Copy CRC 01DFA530
Accurately ripped (confidence 2) [05932E2C]
Copy OK
Track 4
Filename M:\F L A C R I P S 3\VA\Pugwash - [2005] - Jollity [FLAC]\04 - Pugwash - I Want You Back In My Life.wav
Pre-gap length 0:00:02.00
Peak level 98.8 %
Track quality 100.0 %
Test CRC 15C2E801
Copy CRC 15C2E801
Accurately ripped (confidence 2) [3B84DF4E]
Copy OK
Track 5
Filename M:\F L A C R I P S 3\VA\Pugwash - [2005] - Jollity [FLAC]\05 - Pugwash - This Could Be Good.wav
Pre-gap length 0:00:02.01
Peak level 98.8 %
Track quality 99.9 %
Test CRC 1983A5C3
Copy CRC 1983A5C3
Accurately ripped (confidence 2) [A7A839E2]
Copy OK
Track 6
Filename M:\F L A C R I P S 3\VA\Pugwash - [2005] - Jollity [FLAC]\06 - Pugwash - Poles Together.wav
Pre-gap length 0:00:02.01
Peak level 98.8 %
Track quality 100.0 %
Test CRC 8D649E0C
Copy CRC 8D649E0C
Accurately ripped (confidence 2) [2B0742F5]
Copy OK
Track 7
Filename M:\F L A C R I P S 3\VA\Pugwash - [2005] - Jollity [FLAC]\07 - Pugwash - Even I.wav
Pre-gap length 0:00:00.92
Peak level 98.8 %
Track quality 100.0 %
Test CRC EF9AEE9C
Copy CRC EF9AEE9C
Accurately ripped (confidence 2) [050C568B]
Copy OK
Track 8
Filename M:\F L A C R I P S 3\VA\Pugwash - [2005] - Jollity [FLAC]\08 - Pugwash - Something New.wav
Peak level 98.8 %
Track quality 100.0 %
Test CRC FBE3A29F
Copy CRC FBE3A29F
Accurately ripped (confidence 2) [EF29067E]
Copy OK
Track 9
Filename M:\F L A C R I P S 3\VA\Pugwash - [2005] - Jollity [FLAC]\09 - Pugwash - Waltz #714.wav
Pre-gap length 0:00:02.01
Peak level 98.8 %
Track quality 100.0 %
Test CRC 9EB35B4D
Copy CRC 9EB35B4D
Accurately ripped (confidence 2) [FDF20B58]
Copy OK
Track 10
Filename M:\F L A C R I P S 3\VA\Pugwash - [2005] - Jollity [FLAC]\10 - Pugwash - Lullaby #1.wav
Pre-gap length 0:00:02.01
Peak level 98.8 %
Track quality 100.0 %
Test CRC A8FCAB62
Copy CRC A8FCAB62
Accurately ripped (confidence 2) [07C9E5AE]
Copy OK
Track 11
Filename M:\F L A C R I P S 3\VA\Pugwash - [2005] - Jollity [FLAC]\11 - Pugwash - Anchor.wav
Peak level 98.8 %
Track quality 100.0 %
Test CRC 53D40A95
Copy CRC 53D40A95
Accurately ripped (confidence 2) [98AAFD42]
Copy OK
All tracks accurately ripped
No errors occurred
End of status report
Правила, инструкции, FAQ!!!
Торрент  Добавлен [26 мар 2019, 20:07] Скачать торрент Магнет ссылка
Скачать торрент
[ Размер 13.18 КБ / Просмотров 2 ]

Статус
Проверен 
 
Размер  304.51 МБ
Приватный: Нет (DHT включён)
.torrent скачан  0
 


     Отправить личное сообщение
   
Страница 1 из 1
Показать сообщения за:  Поле сортировки  
Начать новую тему Ответить на тему


Сейчас этот форум просматривают: нет зарегистрированных пользователей и гости: 0


Вы не можете начинать темы
Вы не можете отвечать на сообщения
Вы не можете редактировать свои сообщения
Вы не можете удалять свои сообщения
Вы не можете добавлять вложения

Перейти:  
cron