Начать новую тему Ответить на тему
Статистика раздачи
Размер: 174.63 МБ | Добавлен: 26 мар 2019, 18:39 | Скачали: 0
Сидеров: 1  [0 байт/сек]    Личеров: 0  [0 байт/сек]
Пред. тема | След. тема 

Автор
Сообщение

СообщениеДобавлено: 26 мар 2019, 18:39 

Ответить с цитатой 

Stappe / Who Do You Think You Are?
Жанр: Alternative Rock, Pop Rock
Год издания: 1995
Издатель (лейбл): Mega Records
Номер по каталогу: MRCXCD 2752
Аудиокодек: FLAC (*.flac)
Тип рипа: image+.cue
Битрейт аудио: lossless
Продолжительность: 15:52
Источник (релизер): свой рип
Наличие сканов в содержимом раздачи: да
Треклист:
01. Stappe - Who Do You Think You Are? [Radio Edit] [03:32]
02. Stappe - What's It To You? [03:21]
03. Stappe - Who Do You Think You Are? [Club Version] [05:32]
04. Stappe - Who Do You Think You Are? [Another Version] [03:26]
Код:
Exact Audio Copy V1.0 beta 3 from 29. August 2011
EAC extraction logfile from 8. May 2012, 17:55
Stappe / Who Do You Think You Are? [Maxi]
Used drive  : PLEXTOR DVDR   PX-755A   Adapter: 0  ID: 1
Read mode               : Secure
Utilize accurate stream : Yes
Defeat audio cache      : Yes
Make use of C2 pointers : No
Read offset correction                      : 30
Overread into Lead-In and Lead-Out          : No
Fill up missing offset samples with silence : Yes
Delete leading and trailing silent blocks   : No
Null samples used in CRC calculations       : Yes
Used interface                              : Native Win32 interface for Win NT & 2000
Used output format              : User Defined Encoder
Selected bitrate                : 128 kBit/s
Quality                         : High
Add ID3 tag                     : No
Command line compressor         : C:\Program Files (x86)\Exact Audio Copy\Flac\flac.exe
Additional command line options : -V -8 -T "Date=%year%" -T "COMMENT=ripped by Andy aka yetiisyou" -T "Genre=%genre%" %source%
TOC of the extracted CD
     Track |   Start  |  Length  | Start sector | End sector
    ---------------------------------------------------------
        1  |  0:00.00 |  3:34.47 |         0    |    16096
        2  |  3:34.47 |  3:23.53 |     16097    |    31374
        3  |  6:58.25 |  5:34.67 |     31375    |    56491
        4  | 12:33.17 |  3:26.33 |     56492    |    71974
Range status and errors
Selected range
     Filename E:\!Rips\Stappe – Who Do You Think You Are [Mega Records – MRCXCD 2752] [1995]\Stappe - Who Do You Think You Are [Maxi].wav
     Peak level 99.9 %
     Extraction speed 2.2 X
     Range quality 100.0 %
     Test CRC 762F4ED6
     Copy CRC 762F4ED6
     Copy OK
No errors occurred
AccurateRip summary
Track  1  not present in database
Track  2  not present in database
Track  3  not present in database
Track  4  not present in database
None of the tracks are present in the AccurateRip database
End of status report
---- CUETools DB Plugin V2.1.3
[CTDB TOCID: qe4WitscRhYMW0MPqQ9me8Vaigs-] found, Submit result: qe4WitscRhYMW0MPqQ9me8Vaigs- has been confirmed
[fdd24986] (1/1) Accurately ripped
==== Log checksum 987BD42B3BBDDEBD31297A7B5D038D64FE2675A72A9F6EA8CB2B54422D7EC72F ====
Код:
REM GENRE Pop
REM DATE 1995
REM DISCID 2203BF04
REM COMMENT "ExactAudioCopy v1.0b3"
CATALOG 0000000000000
PERFORMER "Stappe"
TITLE "Who Do You Think You Are? [Maxi]"
FILE "Stappe - Who Do You Think You Are [Maxi].flac" WAVE
  TRACK 01 AUDIO
    TITLE "Who Do You Think You Are? [Radio Edit]"
    PERFORMER "Stappe"
    ISRC DKAWM9500301
    INDEX 01 00:00:00
  TRACK 02 AUDIO
    TITLE "What's It To You?"
    PERFORMER "Stappe"
    ISRC DKAWM9500302
    INDEX 00 03:32:10
    INDEX 01 03:34:47
  TRACK 03 AUDIO
    TITLE "Who Do You Think You Are? [Club Version]"
    PERFORMER "Stappe"
    ISRC DKAWM9500303
    INDEX 00 06:55:57
    INDEX 01 06:58:25
  TRACK 04 AUDIO
    TITLE "Who Do You Think You Are? [Another Version]"
    PERFORMER "Stappe"
    ISRC DKAWM9500304
    INDEX 00 12:30:50
    INDEX 01 12:33:17
Правила, инструкции, FAQ!!!
Торрент  Добавлен [26 мар 2019, 18:39] Скачать торрент Магнет ссылка
Скачать торрент
[ Размер 14.47 КБ / Просмотров 2 ]

Статус
Проверен 
 
Размер  174.63 МБ
Приватный: Нет (DHT включён)
.torrent скачан  0
 


     Отправить личное сообщение
   
Страница 1 из 1
Показать сообщения за:  Поле сортировки  
Начать новую тему Ответить на тему


Сейчас этот форум просматривают: нет зарегистрированных пользователей и гости: 0


Вы не можете начинать темы
Вы не можете отвечать на сообщения
Вы не можете редактировать свои сообщения
Вы не можете удалять свои сообщения
Вы не можете добавлять вложения

Перейти:  
cron