Начать новую тему Ответить на тему
Статистика раздачи
Размер: 349.4 МБ | Добавлен: 26 мар 2019, 19:17 | Скачали: 0
Сидеров: 0  [0 байт/сек]    Личеров: 0  [0 байт/сек]
Пред. тема | След. тема 

Автор
Сообщение

СообщениеДобавлено: 26 мар 2019, 19:17 

Ответить с цитатой 

Monica Sex / Mangina
Жанр: Alternative Rock, Pop Rock
Страна-производитель диска: Israel
Год издания: 02/02/2011
Издатель (лейбл): NMC
Номер по каталогу: 3305812
Страна: Israel
Аудиокодек: FLAC (*.flac)
Тип рипа: tracks+.cue
Битрейт аудио: lossless
Продолжительность: 45:11
Источник (релизер): Мой рип
Наличие сканов в содержимом раздачи: да
Треклист:
1. Gesher (3:43)
2. HaSimla MiMadrid (3:05)
3. Mangina (5:02)
4. Hakol BaMakom (4:24)
5. Ramkolim (3:31)
6. Lehafsid LeNew York (3:59)
7. Histabrut (3:34)
8. Lifnei HaShena (3:18)
9. Ata Lelo (3:48)
10. Yeled Mafteah (3:24)
11. Mishehu Aher (4:30)
12. Bli Blamim (2:53)
Код:
Exact Audio Copy V1.0 beta 3 from 29. August 2011
EAC extraction logfile from 14. April 2012, 16:17
Monica Sex / Mangina
Used drive  : TSSTcorpCD/DVDW SH-S182D   Adapter: 0  ID: 0
Read mode               : Secure
Utilize accurate stream : Yes
Defeat audio cache      : Yes
Make use of C2 pointers : No
Read offset correction                      : 6
Overread into Lead-In and Lead-Out          : No
Fill up missing offset samples with silence : Yes
Delete leading and trailing silent blocks   : No
Null samples used in CRC calculations       : Yes
Used interface                              : Native Win32 interface for Win NT & 2000
Gap handling                                : Appended to previous track
Used output format              : User Defined Encoder
Selected bitrate                : 1024 kBit/s
Quality                         : High
Add ID3 tag                     : No
Command line compressor         : C:\Program Files\Exact Audio Copy\Flac\flac.exe
Additional command line options : -8 -V -T "ARTIST=%artist%" -T "TITLE=%title%" -T "ALBUM=%albumtitle%" -T "DATE=%year%" -T "TRACKNUMBER=%tracknr%" -T "GENRE=%genre%" -T "PERFORMER=%albuminterpret%" -T "COMPOSER=%composer%" %haslyrics%--tag-from-file=LYRICS="%lyricsfile%"%haslyrics% -T "ALBUMARTIST=%albumartist%" -T "ALBUM ARTIST=%albumartist%" -T "DISCNUMBER=%cdnumber%" -T "TOTALDISCS=%totalcds%" -T "TOTALTRACKS=%numtracks%" -T "COMMENT=%comment%" %source% -o %dest%
TOC of the extracted CD
     Track |   Start  |  Length  | Start sector | End sector
    ---------------------------------------------------------
        1  |  0:00.15 |  3:43.35 |        15    |    16774
        2  |  3:43.50 |  3:05.23 |     16775    |    30672
        3  |  6:48.73 |  5:02.74 |     30673    |    53396
        4  | 11:51.72 |  4:24.70 |     53397    |    73266
        5  | 16:16.67 |  3:31.21 |     73267    |    89112
        6  | 19:48.13 |  3:59.25 |     89113    |   107062
        7  | 23:47.38 |  3:34.02 |    107063    |   123114
        8  | 27:21.40 |  3:18.43 |    123115    |   138007
        9  | 30:40.08 |  3:48.12 |    138008    |   155119
       10  | 34:28.20 |  3:24.14 |    155120    |   170433
       11  | 37:52.34 |  4:30.28 |    170434    |   190711
       12  | 42:22.62 |  2:53.14 |    190712    |   203700
Track  1
     Filename D:\Ripped by Vasiliska\01 Gesher.wav
     Pre-gap length  0:00:02.20
     Peak level 100.0 %
     Extraction speed 4.8 X
     Track quality 100.0 %
     Test CRC 1A4D0DC4
     Copy CRC 1A4D0DC4
     Track not present in AccurateRip database
     Copy OK
Track  2
     Filename D:\Ripped by Vasiliska\02 HaSimla MiMadrid.wav
     Pre-gap length  0:00:04.44
     Peak level 100.0 %
     Extraction speed 5.1 X
     Track quality 100.0 %
     Test CRC 5B033B95
     Copy CRC 5B033B95
     Track not present in AccurateRip database
     Copy OK
Track  3
     Filename D:\Ripped by Vasiliska\03 Mangina.wav
     Pre-gap length  0:00:02.76
     Peak level 100.0 %
     Extraction speed 5.8 X
     Track quality 100.0 %
     Test CRC 64D5B51A
     Copy CRC 64D5B51A
     Track not present in AccurateRip database
     Copy OK
Track  4
     Filename D:\Ripped by Vasiliska\04 Hakol BaMakom.wav
     Pre-gap length  0:00:01.93
     Peak level 100.0 %
     Extraction speed 5.5 X
     Track quality 99.9 %
     Test CRC 450C5CD3
     Copy CRC 450C5CD3
     Track not present in AccurateRip database
     Copy OK
Track  5
     Filename D:\Ripped by Vasiliska\05 Ramkolim.wav
     Pre-gap length  0:00:00.25
     Peak level 100.0 %
     Extraction speed 6.3 X
     Track quality 100.0 %
     Test CRC E4FBABDC
     Copy CRC E4FBABDC
     Track not present in AccurateRip database
     Copy OK
Track  6
     Filename D:\Ripped by Vasiliska\06 Lehafsid LeNew York.wav
     Peak level 100.0 %
     Extraction speed 6.6 X
     Track quality 100.0 %
     Test CRC 913045BC
     Copy CRC 913045BC
     Track not present in AccurateRip database
     Copy OK
Track  7
     Filename D:\Ripped by Vasiliska\07 Histabrut.wav
     Pre-gap length  0:00:01.25
     Peak level 100.0 %
     Extraction speed 6.8 X
     Track quality 100.0 %
     Test CRC E70CC91F
     Copy CRC E70CC91F
     Track not present in AccurateRip database
     Copy OK
Track  8
     Filename D:\Ripped by Vasiliska\08 Lifnei HaShena.wav
     Pre-gap length  0:00:01.76
     Peak level 100.0 %
     Extraction speed 7.0 X
     Track quality 100.0 %
     Test CRC 7D8AE7B6
     Copy CRC 7D8AE7B6
     Track not present in AccurateRip database
     Copy OK
Track  9
     Filename D:\Ripped by Vasiliska\09 Ata Lelo.wav
     Pre-gap length  0:00:00.48
     Peak level 100.0 %
     Extraction speed 7.4 X
     Track quality 100.0 %
     Test CRC FF88C48D
     Copy CRC FF88C48D
     Track not present in AccurateRip database
     Copy OK
Track 10
     Filename D:\Ripped by Vasiliska\10 Yeled Mafteah.wav
     Pre-gap length  0:00:01.25
     Peak level 100.0 %
     Extraction speed 6.5 X
     Track quality 99.9 %
     Test CRC 0F13A2D7
     Copy CRC 0F13A2D7
     Track not present in AccurateRip database
     Copy OK
Track 11
     Filename D:\Ripped by Vasiliska\11 Mishehu Aher.wav
     Peak level 100.0 %
     Extraction speed 8.1 X
     Track quality 100.0 %
     Test CRC D922FD52
     Copy CRC D922FD52
     Track not present in AccurateRip database
     Copy OK
Track 12
     Filename D:\Ripped by Vasiliska\12 Bli Blamim.wav
     Pre-gap length  0:00:01.70
     Peak level 100.0 %
     Extraction speed 7.7 X
     Track quality 100.0 %
     Test CRC 40A96980
     Copy CRC 40A96980
     Track not present in AccurateRip database
     Copy OK
None of the tracks are present in the AccurateRip database
No errors occurred
End of status report
==== Log checksum CC38E8AA7F126E6693E057103BD8A4FD94A4A3DDDBCCA7EFE6457DDA27B62D2F ====
Код:
REM GENRE Rock
REM DATE 2011
REM DISCID 920A9C0C
REM COMMENT "ExactAudioCopy v1.0b3"
PERFORMER "Monica Sex"
TITLE "Mangina"
FILE "01 Gesher.wav" WAVE
  TRACK 01 AUDIO
    TITLE "Gesher"
    PERFORMER "Monica Sex"
    FLAGS DCP
    PREGAP 00:00:15
    INDEX 01 00:00:00
  TRACK 02 AUDIO
    TITLE "HaSimla MiMadrid"
    PERFORMER "Monica Sex"
    FLAGS DCP
    INDEX 00 03:39:02
FILE "02 HaSimla MiMadrid.wav" WAVE
    INDEX 01 00:00:00
  TRACK 03 AUDIO
    TITLE "Mangina"
    PERFORMER "Monica Sex"
    FLAGS DCP
    INDEX 00 03:02:41
FILE "03 Mangina.wav" WAVE
    INDEX 01 00:00:00
  TRACK 04 AUDIO
    TITLE "Hakol BaMakom"
    PERFORMER "Monica Sex"
    FLAGS DCP
    INDEX 00 05:01:04
FILE "04 Hakol BaMakom.wav" WAVE
    INDEX 01 00:00:00
  TRACK 05 AUDIO
    TITLE "Ramkolim"
    PERFORMER "Monica Sex"
    FLAGS DCP
    INDEX 00 04:24:51
FILE "05 Ramkolim.wav" WAVE
    INDEX 01 00:00:00
FILE "06 Lehafsid LeNew York.wav" WAVE
  TRACK 06 AUDIO
    TITLE "Lehafsid LeNew York"
    PERFORMER "Monica Sex"
    FLAGS DCP
    INDEX 01 00:00:00
  TRACK 07 AUDIO
    TITLE "Histabrut"
    PERFORMER "Monica Sex"
    FLAGS DCP
    INDEX 00 03:58:06
FILE "07 Histabrut.wav" WAVE
    INDEX 01 00:00:00
  TRACK 08 AUDIO
    TITLE "Lifnei HaShena"
    PERFORMER "Monica Sex"
    FLAGS DCP
    INDEX 00 03:32:20
FILE "08 Lifnei HaShena.wav" WAVE
    INDEX 01 00:00:00
  TRACK 09 AUDIO
    TITLE "Ata Lelo"
    PERFORMER "Monica Sex"
    FLAGS DCP
    INDEX 00 03:18:07
FILE "09 Ata Lelo.wav" WAVE
    INDEX 01 00:00:00
  TRACK 10 AUDIO
    TITLE "Yeled Mafteah"
    PERFORMER "Monica Sex"
    FLAGS DCP
    INDEX 00 03:46:68
FILE "10 Yeled Mafteah.wav" WAVE
    INDEX 01 00:00:00
FILE "11 Mishehu Aher.wav" WAVE
  TRACK 11 AUDIO
    TITLE "Mishehu Aher"
    PERFORMER "Monica Sex"
    FLAGS DCP
    INDEX 01 00:00:00
  TRACK 12 AUDIO
    TITLE "Bli Blamim"
    PERFORMER "Monica Sex"
    FLAGS DCP
    INDEX 00 04:28:50
FILE "12 Bli Blamim.wav" WAVE
    INDEX 01 00:00:00
Правила, инструкции, FAQ!!!
Торрент  Добавлен [26 мар 2019, 19:17] Скачать торрент Магнет ссылка
Скачать торрент
[ Размер 15.31 КБ / Просмотров 4 ]

Статус
Проверен 
 
Размер  349.4 МБ
Приватный: Нет (DHT включён)
.torrent скачан  0
 


     Отправить личное сообщение
   
Страница 1 из 1
Показать сообщения за:  Поле сортировки  
Начать новую тему Ответить на тему


Сейчас этот форум просматривают: нет зарегистрированных пользователей и гости: 0


Вы не можете начинать темы
Вы не можете отвечать на сообщения
Вы не можете редактировать свои сообщения
Вы не можете удалять свои сообщения
Вы не можете добавлять вложения

Перейти:  
cron