Начать новую тему Ответить на тему
Статистика раздачи
Размер: 694.22 МБ | Добавлен: 26 мар 2019, 21:06 | Скачали: 0
Сидеров: 1  [0 байт/сек]    Личеров: 0  [0 байт/сек]
Пред. тема | След. тема 

Автор
Сообщение

СообщениеДобавлено: 26 мар 2019, 21:06 

Ответить с цитатой 

Automatic Loveletter / 2 Albums + EP
Жанр: Alternative Rock / Pop Rock
Год издания диска: 2008-2011
Страна: USA
Аудиокодек: FLAC (*.flac)
Тип рипа: tracks+.cue
Битрейт аудио: lossless
Продолжительность: 105 мин.
Источник (релизер): Waffles.fm
#777Треклист:
01. The Answer (03:27)
02. Can't Move On (03:44)
03. Hush (04:00)
04. Parker (03:48)
05. Unhearted (03:58)
Код:
Exact Audio Copy V0.99 prebeta 3 from 28. July 2007
EAC extraction logfile from 8. January 2009, 22:01
Automatic Loveletter / Recover EP (Hot Topic Exclusive)
Used drive  : HL-DT-STDVD-RAM GH15L   Adapter: 2  ID: 1
Read mode               : Secure
Utilize accurate stream : Yes
Defeat audio cache      : Yes
Make use of C2 pointers : No
Read offset correction                      : 667
Overread into Lead-In and Lead-Out          : No
Fill up missing offset samples with silence : Yes
Delete leading and trailing silent blocks   : No
Null samples used in CRC calculations       : Yes
Used interface                              : Native Win32 interface for Win NT & 2000
Gap handling                                : Appended to previous track
Used output format              : User Defined Encoder
Selected bitrate                : 768 kBit/s
Quality                         : High
Add ID3 tag                     : No
Command line compressor         : C:\Program Files (x86)\Exact Audio Copy\Syrup\tools\flac.exe
Additional command line options : -V -8 -T "artist=%a" -T "title=%t" -T "album=%g" -T "date=%y" -T "tracknumber=%n" -T "genre=%m" %s
TOC of the extracted CD
     Track |   Start  |  Length  | Start sector | End sector
    ---------------------------------------------------------
        1  |  0:00.00 |  3:27.64 |         0    |    15588
        2  |  3:27.64 |  3:44.06 |     15589    |    32394
        3  |  7:11.70 |  4:00.35 |     32395    |    50429
        4  | 11:12.30 |  3:48.55 |     50430    |    67584
        5  | 15:01.10 |  3:58.01 |     67585    |    85435
Track  1
     Filename L:\FLAC Music\01 - The Answer.wav
     Pre-gap length  0:00:02.00
     Peak level 99.9 %
     Track quality 99.9 %
     Test CRC 8F42D1A7
     Copy CRC 8F42D1A7
     Track not present in AccurateRip database
     Copy OK
Track  2
     Filename L:\FLAC Music\02 - Can't Move On.wav
     Pre-gap length  0:00:00.25
     Peak level 99.9 %
     Track quality 100.0 %
     Test CRC 7A10286A
     Copy CRC 7A10286A
     Track not present in AccurateRip database
     Copy OK
Track  3
     Filename L:\FLAC Music\03 - Hush.wav
     Pre-gap length  0:00:01.48
     Peak level 99.9 %
     Track quality 100.0 %
     Test CRC 2E9AFA6A
     Copy CRC 2E9AFA6A
     Track not present in AccurateRip database
     Copy OK
Track  4
     Filename L:\FLAC Music\04 - Parker.wav
     Pre-gap length  0:00:00.41
     Peak level 99.9 %
     Track quality 100.0 %
     Test CRC A71186F4
     Copy CRC A71186F4
     Track not present in AccurateRip database
     Copy OK
Track  5
     Filename L:\FLAC Music\05 - Unhearted.wav
     Pre-gap length  0:00:01.66
     Peak level 99.9 %
     Track quality 100.0 %
     Test CRC 6DA2C8D8
     Copy CRC 6DA2C8D8
     Track not present in AccurateRip database
     Copy OK
None of the tracks are present in the AccurateRip database
No errors occurred
End of status report
Код:
REM GENRE Alternative
REM DATE 2008
REM DISCID 34047305
REM COMMENT "ExactAudioCopy v0.99pb3"
PERFORMER "Automatic Loveletter"
TITLE "Recover EP (Hot Topic Exclusive)"
FILE "01 - The Answer.wav" WAVE
  TRACK 01 AUDIO
    TITLE "The Answer"
    PERFORMER "Automatic Loveletter"
    INDEX 01 00:00:00
  TRACK 02 AUDIO
    TITLE "Can't Move On"
    PERFORMER "Automatic Loveletter"
    INDEX 00 03:27:45
FILE "02 - Can't Move On.wav" WAVE
    INDEX 01 00:00:00
  TRACK 03 AUDIO
    TITLE "Hush"
    PERFORMER "Automatic Loveletter"
    INDEX 00 03:42:45
FILE "03 - Hush.wav" WAVE
    INDEX 01 00:00:00
  TRACK 04 AUDIO
    TITLE "Parker"
    PERFORMER "Automatic Loveletter"
    INDEX 00 04:00:04
FILE "04 - Parker.wav" WAVE
    INDEX 01 00:00:00
  TRACK 05 AUDIO
    TITLE "Unhearted"
    PERFORMER "Automatic Loveletter"
    INDEX 00 03:47:05
FILE "05 - Unhearted.wav" WAVE
    INDEX 01 00:00:00
#777Треклист:
01. Heart Song (04:13)
02. Don't Let Me Down (03:56)
03. Fade Away (04:17)
04. Hush (03:58)
05. Story Of My Life (04:11)
06. Day They Saved Us (03:37)
07. To Die For (04:44)
08. Let It Ride (04:16)
09. Eyes On You (04:25)
10. My Goodbye (03:38)
11. Butterflies (04:01)
12. Back To Life (04:11)
Код:
Exact Audio Copy V0.99 prebeta 5 from 4. May 2009
EAC extraction logfile from 16. July 2010, 18:25
Automatic Loveletter / Truth Or Dare
Used drive  : PLEXTOR CD-R   PX-W2410A   Adapter: 1  ID: 0
Read mode               : Secure
Utilize accurate stream : Yes
Defeat audio cache      : Yes
Make use of C2 pointers : No
Read offset correction                      : 98
Overread into Lead-In and Lead-Out          : Yes
Fill up missing offset samples with silence : Yes
Delete leading and trailing silent blocks   : No
Null samples used in CRC calculations       : Yes
Used interface                              : Installed external ASPI interface
Gap handling                                : Appended to previous track
Used output format              : User Defined Encoder
Selected bitrate                : 1024 kBit/s
Quality                         : High
Add ID3 tag                     : No
Command line compressor         : C:\Program Files\Exact Audio Copy\Flac\flac.exe
Additional command line options : -V -8 -T "artist=%a" -T "title=%t" -T "album=%g" -T "date=%y" -T "tracknumber=%n" -T "genre=%m" %s
TOC of the extracted CD
     Track |   Start  |  Length  | Start sector | End sector
    ---------------------------------------------------------
        1  |  0:00.00 |  4:13.00 |         0    |    18974
        2  |  4:13.00 |  3:56.72 |     18975    |    36746
        3  |  8:09.72 |  4:17.41 |     36747    |    56062
        4  | 12:27.38 |  3:58.31 |     56063    |    73943
        5  | 16:25.69 |  4:11.59 |     73944    |    92827
        6  | 20:37.53 |  3:37.00 |     92828    |   109102
        7  | 24:14.53 |  4:44.62 |    109103    |   130464
        8  | 28:59.40 |  4:16.00 |    130465    |   149664
        9  | 33:15.40 |  4:25.16 |    149665    |   169555
       10  | 37:40.56 |  3:38.43 |    169556    |   185948
       11  | 41:19.24 |  4:01.26 |    185949    |   204049
       12  | 45:20.50 |  4:11.04 |    204050    |   222878
Track  1
     Filename E:\EACRips\Automatic Loveletter - Truth Or Dare - 2010\01 - Heart Song.wav
     Pre-gap length  0:00:02.00
     Peak level 100.0 %
     Track quality 99.9 %
     Test CRC 2660ABA3
     Copy CRC 2660ABA3
     Track not present in AccurateRip database
     Copy OK
Track  2
     Filename E:\EACRips\Automatic Loveletter - Truth Or Dare - 2010\02 - Don't Let Me Down.wav
     Pre-gap length  0:00:02.00
     Peak level 100.0 %
     Track quality 100.0 %
     Test CRC F1D36F2F
     Copy CRC F1D36F2F
     Track not present in AccurateRip database
     Copy OK
Track  3
     Filename E:\EACRips\Automatic Loveletter - Truth Or Dare - 2010\03 - Fade Away.wav
     Pre-gap length  0:00:02.00
     Peak level 100.0 %
     Track quality 100.0 %
     Test CRC D8447A32
     Copy CRC D8447A32
     Track not present in AccurateRip database
     Copy OK
Track  4
     Filename E:\EACRips\Automatic Loveletter - Truth Or Dare - 2010\04 - Hush.wav
     Pre-gap length  0:00:02.00
     Peak level 100.0 %
     Track quality 99.9 %
     Test CRC 445E3727
     Copy CRC 445E3727
     Track not present in AccurateRip database
     Copy OK
Track  5
     Filename E:\EACRips\Automatic Loveletter - Truth Or Dare - 2010\05 - Story Of My Life.wav
     Pre-gap length  0:00:02.00
     Peak level 100.0 %
     Track quality 100.0 %
     Test CRC 1EB6B9A3
     Copy CRC 1EB6B9A3
     Track not present in AccurateRip database
     Copy OK
Track  6
     Filename E:\EACRips\Automatic Loveletter - Truth Or Dare - 2010\06 - The Day That Saved Us.wav
     Pre-gap length  0:00:02.00
     Peak level 100.0 %
     Track quality 100.0 %
     Test CRC 54243FCB
     Copy CRC 54243FCB
     Track not present in AccurateRip database
     Copy OK
Track  7
     Filename E:\EACRips\Automatic Loveletter - Truth Or Dare - 2010\07 - To Die For.wav
     Pre-gap length  0:00:02.00
     Peak level 100.0 %
     Track quality 100.0 %
     Test CRC 3F1B0ADF
     Copy CRC 3F1B0ADF
     Track not present in AccurateRip database
     Copy OK
Track  8
     Filename E:\EACRips\Automatic Loveletter - Truth Or Dare - 2010\08 - Let It Ride.wav
     Pre-gap length  0:00:02.00
     Peak level 100.0 %
     Track quality 99.9 %
     Test CRC 9D8873C2
     Copy CRC 9D8873C2
     Track not present in AccurateRip database
     Copy OK
Track  9
     Filename E:\EACRips\Automatic Loveletter - Truth Or Dare - 2010\09 - Eyes On You.wav
     Pre-gap length  0:00:02.00
     Peak level 100.0 %
     Track quality 100.0 %
     Test CRC 59FDA487
     Copy CRC 59FDA487
     Track not present in AccurateRip database
     Copy OK
Track 10
     Filename E:\EACRips\Automatic Loveletter - Truth Or Dare - 2010\10 - My Goodbye.wav
     Pre-gap length  0:00:02.00
     Peak level 100.0 %
     Track quality 100.0 %
     Test CRC 9F5CC805
     Copy CRC 9F5CC805
     Track not present in AccurateRip database
     Copy OK
Track 11
     Filename E:\EACRips\Automatic Loveletter - Truth Or Dare - 2010\11 - Butterflies.wav
     Pre-gap length  0:00:02.00
     Peak level 100.0 %
     Track quality 100.0 %
     Test CRC AC21413F
     Copy CRC AC21413F
     Track not present in AccurateRip database
     Copy OK
Track 12
     Filename E:\EACRips\Automatic Loveletter - Truth Or Dare - 2010\12 - Back To Life.wav
     Pre-gap length  0:00:02.00
     Peak level 100.0 %
     Track quality 99.9 %
     Test CRC CEE4ED54
     Copy CRC CEE4ED54
     Track not present in AccurateRip database
     Copy OK
None of the tracks are present in the AccurateRip database
No errors occurred
End of status report
Код:
REM GENRE "Pop Rock"
REM DATE 2010
REM DISCID B60B9B0C
REM COMMENT "ExactAudioCopy v0.99pb5"
PERFORMER "Automatic Loveletter"
TITLE "Truth Or Dare"
FILE "01 - Heart Song.wav" WAVE
  TRACK 01 AUDIO
    TITLE "Heart Song"
    PERFORMER "Automatic Loveletter"
    ISRC JPN201000447
    INDEX 01 00:00:00
  TRACK 02 AUDIO
    TITLE "Don't Let Me Down"
    PERFORMER "Automatic Loveletter"
    ISRC JPN201000444
    INDEX 00 04:11:00
FILE "02 - Don't Let Me Down.wav" WAVE
    INDEX 01 00:00:00
  TRACK 03 AUDIO
    TITLE "Fade Away"
    PERFORMER "Automatic Loveletter"
    ISRC JPN201000446
    INDEX 00 03:54:72
FILE "03 - Fade Away.wav" WAVE
    INDEX 01 00:00:00
  TRACK 04 AUDIO
    TITLE "Hush"
    PERFORMER "Automatic Loveletter"
    ISRC JPN201000448
    INDEX 00 04:15:41
FILE "04 - Hush.wav" WAVE
    INDEX 01 00:00:00
  TRACK 05 AUDIO
    TITLE "Story Of My Life"
    PERFORMER "Automatic Loveletter"
    ISRC JPN201000451
    INDEX 00 03:56:31
FILE "05 - Story Of My Life.wav" WAVE
    INDEX 01 00:00:00
  TRACK 06 AUDIO
    TITLE "The Day That Saved Us"
    PERFORMER "Automatic Loveletter"
    ISRC JPN201000443
    INDEX 00 04:09:59
FILE "06 - The Day That Saved Us.wav" WAVE
    INDEX 01 00:00:00
  TRACK 07 AUDIO
    TITLE "To Die For"
    PERFORMER "Automatic Loveletter"
    ISRC JPN201000452
    INDEX 00 03:35:00
FILE "07 - To Die For.wav" WAVE
    INDEX 01 00:00:00
  TRACK 08 AUDIO
    TITLE "Let It Ride"
    PERFORMER "Automatic Loveletter"
    ISRC JPN201000449
    INDEX 00 04:42:62
FILE "08 - Let It Ride.wav" WAVE
    INDEX 01 00:00:00
  TRACK 09 AUDIO
    TITLE "Eyes On You"
    PERFORMER "Automatic Loveletter"
    ISRC JPN201000445
    INDEX 00 04:14:00
FILE "09 - Eyes On You.wav" WAVE
    INDEX 01 00:00:00
  TRACK 10 AUDIO
    TITLE "My Goodbye"
    PERFORMER "Automatic Loveletter"
    ISRC JPN201000450
    INDEX 00 04:23:16
FILE "10 - My Goodbye.wav" WAVE
    INDEX 01 00:00:00
  TRACK 11 AUDIO
    TITLE "Butterflies"
    PERFORMER "Automatic Loveletter"
    ISRC JPN201000442
    INDEX 00 03:36:43
FILE "11 - Butterflies.wav" WAVE
    INDEX 01 00:00:00
  TRACK 12 AUDIO
    TITLE "Back To Life"
    PERFORMER "Automatic Loveletter"
    ISRC JPN201000441
    INDEX 00 03:59:26
FILE "12 - Back To Life.wav" WAVE
    INDEX 01 00:00:00
#777Треклист:
01. Never Take It Off (01:15)
02. Save Me (03:46)
03. Black Ink Revenge (04:31)
04. Click Your Heels (05:05)
05. Carry the Fire (04:05)
06. Trade Places (05:16)
07. Cruel Cruel (04:32)
08. Pillows (03:00)
09. The Curtain Close (04:32)
Код:
X Lossless Decoder version 20120226 (139.1)
XLD extraction logfile from 2012-03-20 04:05:47 +0000
Automatic Loveletter / The Kids Will Take Their Monsters On
Used drive : MATSHITA DVD-R   UJ-857R (revision HR01)
Ripper mode             : XLD Secure Ripper
Disable audio cache     : OK for the drive with a cache less than 1375KiB
Make use of C2 pointers : NO
Read offset correction  : 102
Max retry count         : 20
Gap status              : Analyzed, Appended (except HTOA)
TOC of the extracted CD
     Track |   Start  |  Length  | Start sector | End sector
    ---------------------------------------------------------
        1  | 00:00:00 | 01:15:01 |         0    |     5625
        2  | 01:15:01 | 03:46:23 |      5626    |    22598
        3  | 05:01:24 | 04:31:66 |     22599    |    42989
        4  | 09:33:15 | 05:05:24 |     42990    |    65888
        5  | 14:38:39 | 04:05:07 |     65889    |    84270
        6  | 18:43:46 | 05:16:69 |     84271    |   108039
        7  | 24:00:40 | 04:32:28 |    108040    |   128467
        8  | 28:32:68 | 03:00:56 |    128468    |   142023
        9  | 31:33:49 | 04:32:16 |    142024    |   162439
AccurateRip Summary
    Track 01 : OK (confidence 1)
    Track 02 : OK (confidence 1)
    Track 03 : OK (confidence 1)
    Track 04 : OK (confidence 1)
    Track 05 : OK (confidence 1)
    Track 06 : OK (confidence 1)
    Track 07 : OK (confidence 1)
    Track 08 : OK (confidence 1)
    Track 09 : OK (confidence 1)
        ->All tracks accurately ripped.
All Tracks
    Album gain             : -7.87 dB
    Peak                   : 0.999908
    Statistics
        Read error                           : 0
        Jitter error (maybe fixed)           : 0
        Retry sector count                   : 0
        Damaged sector count                 : 0
Track 01
    Filename : /Users/Shared/Music Rips/Automatic Loveletter - The Kids Will Take Their Monsters On (2011) [FLAC (level 8)] 01/01 - Automatic Loveletter - Never Take It Off.flac
               /Users/Shared/Music Rips/Automatic Loveletter - The Kids Will Take Their Monsters On (2011) [V0] 01/01 - Automatic Loveletter - Never Take It Off.mp3
               /Users/Shared/Music Rips/Automatic Loveletter - The Kids Will Take Their Monsters On (2011) [V2] 01/01 - Automatic Loveletter - Never Take It Off.mp3
               /Users/Shared/Music Rips/Automatic Loveletter - The Kids Will Take Their Monsters On (2011) [320] 01/01 - Automatic Loveletter - Never Take It Off.mp3
               /Users/Shared/Music Rips/Automatic Loveletter - The Kids Will Take Their Monsters On (2011) [AAC 320] 01/01 - Automatic Loveletter - Never Take It Off.m4a
               /Users/Shared/Music Rips/Automatic Loveletter - The Kids Will Take Their Monsters On (2011) [OGG ] 01/01 - Automatic Loveletter - Never Take It Off.ogg
               /Users/Shared/Music Rips/Automatic Loveletter - The Kids Will Take Their Monsters On (2011) [Apple Lossless] 01/01 - Automatic Loveletter - Never Take It Off.m4a
    Pre-gap length : 00:02:00
    Track gain             : -2.36 dB
    Peak                   : 0.755371
    CRC32 hash (test run)  : 32832094
    CRC32 hash             : 32832094
    CRC32 hash (skip zero) : FA8C6630
    AccurateRip signature  : 54D6FAC8
        ->Accurately ripped! (confidence 1)
    Statistics
        Read error                           : 0
        Jitter error (maybe fixed)           : 0
        Retry sector count                   : 0
        Damaged sector count                 : 0
Track 02
    Filename : /Users/Shared/Music Rips/Automatic Loveletter - The Kids Will Take Their Monsters On (2011) [FLAC (level 8)] 01/02 - Automatic Loveletter - Save Me.flac
               /Users/Shared/Music Rips/Automatic Loveletter - The Kids Will Take Their Monsters On (2011) [V0] 01/02 - Automatic Loveletter - Save Me.mp3
               /Users/Shared/Music Rips/Automatic Loveletter - The Kids Will Take Their Monsters On (2011) [V2] 01/02 - Automatic Loveletter - Save Me.mp3
               /Users/Shared/Music Rips/Automatic Loveletter - The Kids Will Take Their Monsters On (2011) [320] 01/02 - Automatic Loveletter - Save Me.mp3
               /Users/Shared/Music Rips/Automatic Loveletter - The Kids Will Take Their Monsters On (2011) [AAC 320] 01/02 - Automatic Loveletter - Save Me.m4a
               /Users/Shared/Music Rips/Automatic Loveletter - The Kids Will Take Their Monsters On (2011) [OGG ] 01/02 - Automatic Loveletter - Save Me.ogg
               /Users/Shared/Music Rips/Automatic Loveletter - The Kids Will Take Their Monsters On (2011) [Apple Lossless] 01/02 - Automatic Loveletter - Save Me.m4a
    Track gain             : -8.06 dB
    Peak                   : 0.999908
    CRC32 hash (test run)  : 2FFA8F39
    CRC32 hash             : 2FFA8F39
    CRC32 hash (skip zero) : 18C1E271
    AccurateRip signature  : 8F0DCDD0
        ->Accurately ripped! (confidence 1)
    Statistics
        Read error                           : 0
        Jitter error (maybe fixed)           : 0
        Retry sector count                   : 0
        Damaged sector count                 : 0
Track 03
    Filename : /Users/Shared/Music Rips/Automatic Loveletter - The Kids Will Take Their Monsters On (2011) [FLAC (level 8)] 01/03 - Automatic Loveletter - Black Ink Revenge.flac
               /Users/Shared/Music Rips/Automatic Loveletter - The Kids Will Take Their Monsters On (2011) [V0] 01/03 - Automatic Loveletter - Black Ink Revenge.mp3
               /Users/Shared/Music Rips/Automatic Loveletter - The Kids Will Take Their Monsters On (2011) [V2] 01/03 - Automatic Loveletter - Black Ink Revenge.mp3
               /Users/Shared/Music Rips/Automatic Loveletter - The Kids Will Take Their Monsters On (2011) [320] 01/03 - Automatic Loveletter - Black Ink Revenge.mp3
               /Users/Shared/Music Rips/Automatic Loveletter - The Kids Will Take Their Monsters On (2011) [AAC 320] 01/03 - Automatic Loveletter - Black Ink Revenge.m4a
               /Users/Shared/Music Rips/Automatic Loveletter - The Kids Will Take Their Monsters On (2011) [OGG ] 01/03 - Automatic Loveletter - Black Ink Revenge.ogg
               /Users/Shared/Music Rips/Automatic Loveletter - The Kids Will Take Their Monsters On (2011) [Apple Lossless] 01/03 - Automatic Loveletter - Black Ink Revenge.m4a
    Track gain             : -7.88 dB
    Peak                   : 0.999908
    CRC32 hash (test run)  : 56AE43C2
    CRC32 hash             : 56AE43C2
    CRC32 hash (skip zero) : 952F8A16
    AccurateRip signature  : 4AB22D65
        ->Accurately ripped! (confidence 1)
    Statistics
        Read error                           : 0
        Jitter error (maybe fixed)           : 0
        Retry sector count                   : 0
        Damaged sector count                 : 0
Track 04
    Filename : /Users/Shared/Music Rips/Automatic Loveletter - The Kids Will Take Their Monsters On (2011) [FLAC (level 8)] 01/04 - Automatic Loveletter - Click Your Heels (3 Times and Repeat, There's No Place Like Home).flac
               /Users/Shared/Music Rips/Automatic Loveletter - The Kids Will Take Their Monsters On (2011) [V0] 01/04 - Automatic Loveletter - Click Your Heels (3 Times and Repeat, There's No Place Like Home).mp3
               /Users/Shared/Music Rips/Automatic Loveletter - The Kids Will Take Their Monsters On (2011) [V2] 01/04 - Automatic Loveletter - Click Your Heels (3 Times and Repeat, There's No Place Like Home).mp3
               /Users/Shared/Music Rips/Automatic Loveletter - The Kids Will Take Their Monsters On (2011) [320] 01/04 - Automatic Loveletter - Click Your Heels (3 Times and Repeat, There's No Place Like Home).mp3
               /Users/Shared/Music Rips/Automatic Loveletter - The Kids Will Take Their Monsters On (2011) [AAC 320] 01/04 - Automatic Loveletter - Click Your Heels (3 Times and Repeat, There's No Place Like Home).m4a
               /Users/Shared/Music Rips/Automatic Loveletter - The Kids Will Take Their Monsters On (2011) [OGG ] 01/04 - Automatic Loveletter - Click Your Heels (3 Times and Repeat, There's No Place Like Home).ogg
               /Users/Shared/Music Rips/Automatic Loveletter - The Kids Will Take Their Monsters On (2011) [Apple Lossless] 01/04 - Automatic Loveletter - Click Your Heels (3 Times and Repeat, There's No Place Like Home).m4a
    Track gain             : -8.29 dB
    Peak                   : 0.999908
    CRC32 hash (test run)  : B48E1EF2
    CRC32 hash             : B48E1EF2
    CRC32 hash (skip zero) : 81C831FE
    AccurateRip signature  : F118BAD5
        ->Accurately ripped! (confidence 1)
    Statistics
        Read error                           : 0
        Jitter error (maybe fixed)           : 0
        Retry sector count                   : 0
        Damaged sector count                 : 0
Track 05
    Filename : /Users/Shared/Music Rips/Automatic Loveletter - The Kids Will Take Their Monsters On (2011) [FLAC (level 8)] 01/05 - Automatic Loveletter - Carry the Fire.flac
               /Users/Shared/Music Rips/Automatic Loveletter - The Kids Will Take Their Monsters On (2011) [V0] 01/05 - Automatic Loveletter - Carry the Fire.mp3
               /Users/Shared/Music Rips/Automatic Loveletter - The Kids Will Take Their Monsters On (2011) [V2] 01/05 - Automatic Loveletter - Carry the Fire.mp3
               /Users/Shared/Music Rips/Automatic Loveletter - The Kids Will Take Their Monsters On (2011) [320] 01/05 - Automatic Loveletter - Carry the Fire.mp3
               /Users/Shared/Music Rips/Automatic Loveletter - The Kids Will Take Their Monsters On (2011) [AAC 320] 01/05 - Automatic Loveletter - Carry the Fire.m4a
               /Users/Shared/Music Rips/Automatic Loveletter - The Kids Will Take Their Monsters On (2011) [OGG ] 01/05 - Automatic Loveletter - Carry the Fire.ogg
               /Users/Shared/Music Rips/Automatic Loveletter - The Kids Will Take Their Monsters On (2011) [Apple Lossless] 01/05 - Automatic Loveletter - Carry the Fire.m4a
    Track gain             : -8.33 dB
    Peak                   : 0.999908
    CRC32 hash (test run)  : 84FB714E
    CRC32 hash             : 84FB714E
    CRC32 hash (skip zero) : 7F82FF5F
    AccurateRip signature  : 37D0C628
        ->Accurately ripped! (confidence 1)
    Statistics
        Read error                           : 0
        Jitter error (maybe fixed)           : 0
        Retry sector count                   : 0
        Damaged sector count                 : 0
Track 06
    Filename : /Users/Shared/Music Rips/Automatic Loveletter - The Kids Will Take Their Monsters On (2011) [FLAC (level 8)] 01/06 - Automatic Loveletter - Trade Places.flac
               /Users/Shared/Music Rips/Automatic Loveletter - The Kids Will Take Their Monsters On (2011) [V0] 01/06 - Automatic Loveletter - Trade Places.mp3
               /Users/Shared/Music Rips/Automatic Loveletter - The Kids Will Take Their Monsters On (2011) [V2] 01/06 - Automatic Loveletter - Trade Places.mp3
               /Users/Shared/Music Rips/Automatic Loveletter - The Kids Will Take Their Monsters On (2011) [320] 01/06 - Automatic Loveletter - Trade Places.mp3
               /Users/Shared/Music Rips/Automatic Loveletter - The Kids Will Take Their Monsters On (2011) [AAC 320] 01/06 - Automatic Loveletter - Trade Places.m4a
               /Users/Shared/Music Rips/Automatic Loveletter - The Kids Will Take Their Monsters On (2011) [OGG ] 01/06 - Automatic Loveletter - Trade Places.ogg
               /Users/Shared/Music Rips/Automatic Loveletter - The Kids Will Take Their Monsters On (2011) [Apple Lossless] 01/06 - Automatic Loveletter - Trade Places.m4a
    Track gain             : -8.24 dB
    Peak                   : 0.999908
    CRC32 hash (test run)  : 97E94D2F
    CRC32 hash             : 97E94D2F
    CRC32 hash (skip zero) : FC26E92D
    AccurateRip signature  : 86B741DE
        ->Accurately ripped! (confidence 1)
    Statistics
        Read error                           : 0
        Jitter error (maybe fixed)           : 0
        Retry sector count                   : 0
        Damaged sector count                 : 0
Track 07
    Filename : /Users/Shared/Music Rips/Automatic Loveletter - The Kids Will Take Their Monsters On (2011) [FLAC (level 8)] 01/07 - Automatic Loveletter - Cruel Cruel.flac
               /Users/Shared/Music Rips/Automatic Loveletter - The Kids Will Take Their Monsters On (2011) [V0] 01/07 - Automatic Loveletter - Cruel Cruel.mp3
               /Users/Shared/Music Rips/Automatic Loveletter - The Kids Will Take Their Monsters On (2011) [V2] 01/07 - Automatic Loveletter - Cruel Cruel.mp3
               /Users/Shared/Music Rips/Automatic Loveletter - The Kids Will Take Their Monsters On (2011) [320] 01/07 - Automatic Loveletter - Cruel Cruel.mp3
               /Users/Shared/Music Rips/Automatic Loveletter - The Kids Will Take Their Monsters On (2011) [AAC 320] 01/07 - Automatic Loveletter - Cruel Cruel.m4a
               /Users/Shared/Music Rips/Automatic Loveletter - The Kids Will Take Their Monsters On (2011) [OGG ] 01/07 - Automatic Loveletter - Cruel Cruel.ogg
               /Users/Shared/Music Rips/Automatic Loveletter - The Kids Will Take Their Monsters On (2011) [Apple Lossless] 01/07 - Automatic Loveletter - Cruel Cruel.m4a
    Track gain             : -6.95 dB
    Peak                   : 0.999908
    CRC32 hash (test run)  : C4276E53
    CRC32 hash             : C4276E53
    CRC32 hash (skip zero) : C4E095F0
    AccurateRip signature  : D7F0620B
        ->Accurately ripped! (confidence 1)
    Statistics
        Read error                           : 0
        Jitter error (maybe fixed)           : 0
        Retry sector count                   : 0
        Damaged sector count                 : 0
Track 08
    Filename : /Users/Shared/Music Rips/Automatic Loveletter - The Kids Will Take Their Monsters On (2011) [FLAC (level 8)] 01/08 - Automatic Loveletter - Pillows.flac
               /Users/Shared/Music Rips/Automatic Loveletter - The Kids Will Take Their Monsters On (2011) [V0] 01/08 - Automatic Loveletter - Pillows.mp3
               /Users/Shared/Music Rips/Automatic Loveletter - The Kids Will Take Their Monsters On (2011) [V2] 01/08 - Automatic Loveletter - Pillows.mp3
               /Users/Shared/Music Rips/Automatic Loveletter - The Kids Will Take Their Monsters On (2011) [320] 01/08 - Automatic Loveletter - Pillows.mp3
               /Users/Shared/Music Rips/Automatic Loveletter - The Kids Will Take Their Monsters On (2011) [AAC 320] 01/08 - Automatic Loveletter - Pillows.m4a
               /Users/Shared/Music Rips/Automatic Loveletter - The Kids Will Take Their Monsters On (2011) [OGG ] 01/08 - Automatic Loveletter - Pillows.ogg
               /Users/Shared/Music Rips/Automatic Loveletter - The Kids Will Take Their Monsters On (2011) [Apple Lossless] 01/08 - Automatic Loveletter - Pillows.m4a
    Track gain             : -7.19 dB
    Peak                   : 0.999908
    CRC32 hash (test run)  : 7909DC16
    CRC32 hash             : 7909DC16
    CRC32 hash (skip zero) : A903E91D
    AccurateRip signature  : EEC47097
        ->Accurately ripped! (confidence 1)
    Statistics
        Read error                           : 0
        Jitter error (maybe fixed)           : 0
        Retry sector count                   : 0
        Damaged sector count                 : 0
Track 09
    Filename : /Users/Shared/Music Rips/Automatic Loveletter - The Kids Will Take Their Monsters On (2011) [FLAC (level 8)] 01/09 - Automatic Loveletter - The Curtain Close.flac
               /Users/Shared/Music Rips/Automatic Loveletter - The Kids Will Take Their Monsters On (2011) [V0] 01/09 - Automatic Loveletter - The Curtain Close.mp3
               /Users/Shared/Music Rips/Automatic Loveletter - The Kids Will Take Their Monsters On (2011) [V2] 01/09 - Automatic Loveletter - The Curtain Close.mp3
               /Users/Shared/Music Rips/Automatic Loveletter - The Kids Will Take Their Monsters On (2011) [320] 01/09 - Automatic Loveletter - The Curtain Close.mp3
               /Users/Shared/Music Rips/Automatic Loveletter - The Kids Will Take Their Monsters On (2011) [AAC 320] 01/09 - Automatic Loveletter - The Curtain Close.m4a
               /Users/Shared/Music Rips/Automatic Loveletter - The Kids Will Take Their Monsters On (2011) [OGG ] 01/09 - Automatic Loveletter - The Curtain Close.ogg
               /Users/Shared/Music Rips/Automatic Loveletter - The Kids Will Take Their Monsters On (2011) [Apple Lossless] 01/09 - Automatic Loveletter - The Curtain Close.m4a
    Track gain             : -6.39 dB
    Peak                   : 0.999908
    CRC32 hash (test run)  : CAEC5800
    CRC32 hash             : CAEC5800
    CRC32 hash (skip zero) : 1E020ED1
    AccurateRip signature  : 9CA984F0
        ->Accurately ripped! (confidence 1)
    Statistics
        Read error                           : 0
        Jitter error (maybe fixed)           : 0
        Retry sector count                   : 0
        Damaged sector count                 : 0
No errors occurred
End of status report
Код:
TITLE "The Kids Will Take Their Monsters On"
PERFORMER "Automatic Loveletter"
REM GENRE "Pop Rock"
REM DATE "2011"
REM DISCNUMBER 1
REM TOTALDISCS 1
REM DISCID 6F087509
REM REPLAYGAIN_ALBUM_GAIN -7.87 dB
REM REPLAYGAIN_ALBUM_PEAK 0.999908
FILE "01 - Never Take It Off.flac" WAVE
  TRACK 01 AUDIO
    TITLE "Never Take It Off"
    PERFORMER "Automatic Loveletter"
    ISRC USAAT1110157
    FLAGS DCP
    REM REPLAYGAIN_TRACK_GAIN -2.36 dB
    REM REPLAYGAIN_TRACK_PEAK 0.755371
    INDEX 01 00:00:00
FILE "02 - Save Me.flac" WAVE
  TRACK 02 AUDIO
    TITLE "Save Me"
    PERFORMER "Automatic Loveletter"
    ISRC USAAT1110158
    FLAGS DCP
    REM REPLAYGAIN_TRACK_GAIN -8.06 dB
    REM REPLAYGAIN_TRACK_PEAK 0.999908
    INDEX 01 00:00:00
FILE "03 - Black Ink Revenge.flac" WAVE
  TRACK 03 AUDIO
    TITLE "Black Ink Revenge"
    PERFORMER "Automatic Loveletter"
    ISRC USAAT1110159
    FLAGS DCP
    REM REPLAYGAIN_TRACK_GAIN -7.88 dB
    REM REPLAYGAIN_TRACK_PEAK 0.999908
    INDEX 01 00:00:00
FILE "04 - Click Your Heels (3 Times and Repeat, There's No Place Like Home).flac" WAVE
  TRACK 04 AUDIO
    TITLE "Click Your Heels (3 Times and Repeat, There's No Place Like Home)"
    PERFORMER "Automatic Loveletter"
    ISRC USAAT1110160
    FLAGS DCP
    REM REPLAYGAIN_TRACK_GAIN -8.29 dB
    REM REPLAYGAIN_TRACK_PEAK 0.999908
    INDEX 01 00:00:00
FILE "05 - Carry the Fire.flac" WAVE
  TRACK 05 AUDIO
    TITLE "Carry the Fire"
    PERFORMER "Automatic Loveletter"
    ISRC USAAT1110161
    FLAGS DCP
    REM REPLAYGAIN_TRACK_GAIN -8.33 dB
    REM REPLAYGAIN_TRACK_PEAK 0.999908
    INDEX 01 00:00:00
FILE "06 - Trade Places.flac" WAVE
  TRACK 06 AUDIO
    TITLE "Trade Places"
    PERFORMER "Automatic Loveletter"
    ISRC USAAT1110162
    FLAGS DCP
    REM REPLAYGAIN_TRACK_GAIN -8.24 dB
    REM REPLAYGAIN_TRACK_PEAK 0.999908
    INDEX 01 00:00:00
FILE "07 - Cruel Cruel.flac" WAVE
  TRACK 07 AUDIO
    TITLE "Cruel Cruel"
    PERFORMER "Automatic Loveletter"
    ISRC USAAT1110163
    FLAGS DCP
    REM REPLAYGAIN_TRACK_GAIN -6.95 dB
    REM REPLAYGAIN_TRACK_PEAK 0.999908
    INDEX 01 00:00:00
FILE "08 - Pillows.flac" WAVE
  TRACK 08 AUDIO
    TITLE "Pillows"
    PERFORMER "Automatic Loveletter"
    ISRC USAAT1110164
    FLAGS DCP
    REM REPLAYGAIN_TRACK_GAIN -7.19 dB
    REM REPLAYGAIN_TRACK_PEAK 0.999908
    INDEX 01 00:00:00
FILE "09 - The Curtain Close.flac" WAVE
  TRACK 09 AUDIO
    TITLE "The Curtain Close"
    PERFORMER "Automatic Loveletter"
    ISRC USAAT1110165
    FLAGS DCP
    REM REPLAYGAIN_TRACK_GAIN -6.39 dB
    REM REPLAYGAIN_TRACK_PEAK 0.999908
    INDEX 01 00:00:00
Правила, инструкции, FAQ!!!
Торрент  Добавлен [26 мар 2019, 21:06] Скачать торрент Магнет ссылка
Скачать торрент
[ Размер 7.82 КБ / Просмотров 1 ]

Статус
Проверен 
 
Размер  694.22 МБ
Приватный: Нет (DHT включён)
.torrent скачан  0
 


     Отправить личное сообщение
   
Страница 1 из 1
Показать сообщения за:  Поле сортировки  
Начать новую тему Ответить на тему


Сейчас этот форум просматривают: нет зарегистрированных пользователей и гости: 0


Вы не можете начинать темы
Вы не можете отвечать на сообщения
Вы не можете редактировать свои сообщения
Вы не можете удалять свои сообщения
Вы не можете добавлять вложения

Перейти:  
cron