Начать новую тему Ответить на тему
Статистика раздачи
Размер: 462.64 МБ | Добавлен: 26 мар 2019, 20:08 | Скачали: 0
Сидеров: 0  [0 байт/сек]    Личеров: 0  [0 байт/сек]
Пред. тема | След. тема 

Автор
Сообщение

СообщениеДобавлено: 26 мар 2019, 20:08 

Ответить с цитатой 

Modern English - After The Snow [re-issue with additional tracks]
Жанр: Alternative Rock, New Wave
Год выпуска диска: 1992
Производитель диска: UK [4AD]
Аудио кодек: FLAC
Тип рипа: image+.cue
Битрейт аудио: lossless
Продолжительность: 70'33''
Трэклист:
1. Someone's Calling (4:02)
2. Life In The Gladhouse (4:20)
3. Face Of Wood (5:55)
4. Dawn Chorus (4:41)
5. I Melt With You (4:09)
6. After The Snow (3:50)
7. Carry Me Down (5:24)
8. Tables Turning (4:34)
Additional Tracks:
9. Someone's Calling (3:44)
10. Life In The Gladhouse (4:59)
11. I Melt With You (7"Mix) (3:49)
12. The Prize (3:30)
13. Life In The Gladhouse (5:54)
14. The Choicest View (11:42)
Доп. информация: Producer - Hugh Jones (tracks: 1 to 9, 11 to 13.), Modern English
Written-By - Modern English
All songs published by Beggars Banquet Music Ltd/Momentum Music Ltd.
Код:
Exact Audio Copy V0.99 prebeta 4 from 23. January 2008
Отчёт EAC об извлечении, выполненном 25. января 2009, 20:29
Modern English / After the Snow [re-issue with bonus tracks]
Дисковод: PIONEER DVD-RW  DVR-115D   Adapter: 0  ID: 0
Режим чтения                 : Достоверность
Использование точного потока : Да
Отключение кэша аудио        : Да
Использование указателей C2  : Нет
Коррекция смещения при чтении                     : 48
Способность читать области Lead-in и Lead-out     : Нет
Заполнение пропущенных сэмплов тишиной            : Да
Удаление блоков с тишиной в начале и конце        : Нет
При вычислениях CRC использовались нулевые сэмплы : Да
Интерфейс                                         : Установленный внешний ASPI-интерфейс
Выходной формат          : Пользовательский кодировщик
Выбранный битрейт        : 1024 kBit/s
Качество                 : Высокий
Добавление ID3-тэга      : Нет
Утилита сжатия           : C:\Program Files\Exact Audio Copy\Flac\flac.exe
Дополнительные параметры : -T "artist=%a" -T "title=%t" -T "album=%g" -T "date=%y" -T "tracknumber=%n" -T "genre=%m" %s
TOC извлечённого CD
     Трек |   Старт  | Длительность | Начальный сектор | Конечный сектор
    ---------------------------------------------------------------------
       1  |  0:00.22 |    4:01.63   |          22      |      18159
       2  |  4:02.10 |    4:20.62   |       18160      |      37721
       3  |  8:22.72 |    5:55.13   |       37722      |      64359
       4  | 14:18.10 |    4:45.07   |       64360      |      85741
       5  | 19:03.17 |    4:11.43   |       85742      |     104609
       6  | 23:14.60 |    3:51.17   |      104610      |     121951
       7  | 27:06.02 |    5:24.53   |      121952      |     146304
       8  | 32:30.55 |    4:35.30   |      146305      |     166959
       9  | 37:06.10 |    3:46.00   |      166960      |     183909
      10  | 40:52.10 |    5:00.00   |      183910      |     206409
      11  | 45:52.10 |    3:50.02   |      206410      |     223661
      12  | 49:42.12 |    3:32.23   |      223662      |     239584
      13  | 53:14.35 |    5:55.72   |      239585      |     266281
      14  | 59:10.32 |   11:41.68   |      266282      |     318924
Характеристики диапазона извлечения и сообщения об ошибках
Выбранный диапазон
     Имя файла D:\RIP FLAC\Modern English - 1992 - After The Snow [Reissue with bonus tracks] [FLAC]\Modern English - After the Snow [re-issue with bonus tracks].wav
     Пиковый уровень 100.0 %
     Качество диапазона 100.0 %
     CRC теста B1F1B95E
     CRC копии B1F1B95E
     Копирование... OK
Ошибок не произошло
AccurateRip: сводка
Трек  1  нет в базе данных
Трек  2  нет в базе данных
Трек  3  нет в базе данных
Трек  4  нет в базе данных
Трек  5  нет в базе данных
Трек  6  нет в базе данных
Трек  7  нет в базе данных
Трек  8  нет в базе данных
Трек  9  нет в базе данных
Трек 10  нет в базе данных
Трек 11  нет в базе данных
Трек 12  нет в базе данных
Трек 13  нет в базе данных
Трек 14  нет в базе данных
Ни одного трека нет в базе AccurateRip
Конец отчёта
Код:
AUDIOCHECKER v1.2 - by Dester - opdester@freemail.hu
~~~~~~~~~~~~~~~~~
1 -===- D:\REQUEST\Modern English - 1992 - After The Snow [Reissue with bonus tracks]\Modern English - After the Snow [re-issue with bonus tracks].flac
  Extracted successfully
  Conclusion: This track looks like CDDA with probability 100%
Сканы оформления прилагаются
Правила, инструкции, FAQ!!!
Торрент  Добавлен [26 мар 2019, 20:08] Скачать торрент Магнет ссылка
Скачать торрент
[ Размер 37.72 КБ / Просмотров 7 ]

Статус
Проверен 
 
Размер  462.64 МБ
Приватный: Нет (DHT включён)
.torrent скачан  0
 


     Отправить личное сообщение
   
Страница 1 из 1
Показать сообщения за:  Поле сортировки  
Начать новую тему Ответить на тему


Сейчас этот форум просматривают: нет зарегистрированных пользователей и гости: 0


Вы не можете начинать темы
Вы не можете отвечать на сообщения
Вы не можете редактировать свои сообщения
Вы не можете удалять свои сообщения
Вы не можете добавлять вложения

Перейти:  
cron