Начать новую тему Ответить на тему
Статистика раздачи
Размер: 960.22 МБ | Добавлен: 26 мар 2019, 20:59 | Скачали: 0
Сидеров: 1  [0 байт/сек]    Личеров: 0  [0 байт/сек]
Пред. тема | След. тема 

Автор
Сообщение

СообщениеДобавлено: 26 мар 2019, 20:59 

Ответить с цитатой 

Elvis Costello / Unfaithful Music & Soundtrack Album
Жанр: Alternative Rock, New Wave, Country Rock
Носитель: CD
Страна-производитель диска (релиза): USA
Год издания: 2015
Издатель (лейбл): UMe
Номер по каталогу: B0023881-02
Страна исполнителя (группы): England
Аудиокодек: FLAC (*.flac)
Тип рипа: tracks+.cue
Битрейт аудио: lossless
Продолжительность: 02:39:37
Источник (релизер): GreatQuail
Наличие сканов в содержимом раздачи: нет
01. Elvis Costello & Steve Nieve - Accidents Will Happen (Live) (from Live at Hollywood High EP, 1979)
02. Elvis Costello - Poison Moon (from My Aim is True reissue, 1993)
03. Elvis Costello - Watching the Detectives (from non-LP single, 1977)
04. Elvis Costello and The Attractions - Oliver's Army (from Armed Forces, 1979)
05. Elvis Costello and The Attractions - Riot Act (from Get Happy!!, 1980)
06. Elvis Costello and The Attractions - New Lace Sleeves (from Trust, 1981)
07. Elvis Costello and The Attractions - Man Out of Time (from Imperial Bedroom, 1982)
08. Elvis Costello and The Attractions - I Want You (from Blood & Chocolate, 1986)
09. Elvis Costello - When I Was Cruel No.2 (from When I Was Cruel, 2002)
10. George Jones with Elvis Costello - Stranger in the House (from My Very Special Guests, 1980)
11. Elvis Costello and The Attractions - Beyond Belief (from Imperial Bedroom, 1982)
12. Elvis Costello and The Attractions - Home Truth (from Goodbye Cruel World, 1984)
13. The Costello Show featuring His Confederates - Indoor Fireworks (from King of America, 1986)
14. Elvis Costello and The Attractions - Shipbuilding (from Punch the Clock, 1983)
15. Elvis Costello and The Roots - Cinco Minutos Con Vos (from Wise Up Ghost, 2013)
16. Elvis Costello and The Imposters - Bedlam (from The Delivery Man, 2004)
17. Elvis Costello - Deep Dark Truthful Mirror (from Spike, 1989)
18. Elvis Costello & Allen Toussaint - Ascension Day (from The River in Reverse, 2006)
19. Elvis Costello and The Sugarcanes - Red Cotton (from Secret, Profane & Sugarcane, 2009)

Track 01 - From the 7" single "Live At Hollywood High" (1979)
Track 02 - First issued on the 2CD expanded edition of "My Aim Is True" (2001)
Track 03 - From the album "My Aim Is True (1977)
Track 04 - From the album "Armed Forces" (1979)
Track 05 - From the album "Get Happy" (1980)
Track 06 - From the album "Trust" (1981)
Track 07 - From the album "Imperial Bedroom" (1982)
Track 08 - From the album "Blood & Chocolate" (1986)
Track 09 - From the album "When I Was Cruel (2002)
Track 10 - From the George Jones album "My Very Special Guests" (1979)
Track 11 - From the album "Imperial Bedroom" (1982)
Track 12 - From the album "Goodbye Cruel World" (1984)
Track 13 - From the album "King Of America" (1986)
Track 14 - From the album "Punch The Clock" (1983)
Track 15 - From the album "Wise Up Ghost" (2013)
Track 16 - From the album "The Delivery Man" (2004)
Track 17 - From the album "Spike" (1989)
Track 18 - From the album "The River In Reverse" (2006)
Track 19 - From the album "Secret, Profane & Sugarcane" (2009)
Код:
X Lossless Decoder version 20141129a (148.2)
XLD extraction logfile from 2015-10-25 13:14:11 -0400
Elvis Costello / Unfaithful Music & Soundtrack Album
Used drive : Optiarc DVD RW AD-7760H (revision 1.00)
Media type : Pressed CD
Ripper mode             : XLD Secure Ripper
Disable audio cache     : OK for the drive with a cache less than 1375KiB
Make use of C2 pointers : NO
Read offset correction  : 48
Max retry count         : 20
Gap status              : Analyzed, Appended (except HTOA)
TOC of the extracted CD
     Track |   Start  |  Length  | Start sector | End sector
    ---------------------------------------------------------
        1  | 00:00:00 | 03:27:67 |         0    |    15591
        2  | 03:27:67 | 01:54:16 |     15592    |    24157
        3  | 05:22:08 | 03:45:44 |     24158    |    41076
        4  | 09:07:52 | 02:59:64 |     41077    |    54565
        5  | 12:07:41 | 03:35:33 |     54566    |    70723
        6  | 15:42:74 | 03:46:56 |     70724    |    87729
        7  | 19:29:55 | 05:27:60 |     87730    |   112314
        8  | 24:57:40 | 06:41:48 |    112315    |   142437
        9  | 31:39:13 | 07:07:37 |    142438    |   174499
       10  | 38:46:50 | 03:38:10 |    174500    |   190859
       11  | 42:24:60 | 02:34:73 |    190860    |   202482
       12  | 44:59:58 | 03:13:63 |    202483    |   217020
       13  | 48:13:46 | 04:10:01 |    217021    |   235771
       14  | 52:23:47 | 04:54:05 |    235772    |   257826
       15  | 57:17:52 | 05:01:19 |    257827    |   280420
       16  | 62:18:71 | 04:49:30 |    280421    |   302125
       17  | 67:08:26 | 04:04:65 |    302126    |   320490
       18  | 71:13:16 | 02:58:28 |    320491    |   333868
       19  | 74:11:44 | 05:41:63 |    333869    |   359506
AccurateRip Summary
    Disc not found in AccurateRip DB.
All Tracks
    Album gain               : -7.76 dB
    Peak                     : 1.000000
    Statistics
        Read error                           : 0
        Jitter error (maybe fixed)           : 0
        Retry sector count                   : 0
        Damaged sector count                 : 0
Track 01
    Filename : /Users/cthulhu/Desktop/Uploads/Elvis Costello - Unfaithful Music & Soundtrack Album (2015) [FLAC]/01 Accidents Will Happen (Live at Hollywood High 1978).flac
    Pre-gap length : 00:02:00
    Track gain               : -6.68 dB
    Peak                     : 0.998199
    CRC32 hash (test run)    : 5DA130F6
    CRC32 hash               : 5DA130F6
    CRC32 hash (skip zero)   : 973FE384
    AccurateRip v1 signature : FCE1D1ED
    AccurateRip v2 signature : 3BFD26A0
        ->Track not present in AccurateRip database.
    Statistics
        Read error                           : 0
        Jitter error (maybe fixed)           : 0
        Retry sector count                   : 0
        Damaged sector count                 : 0
Track 02
    Filename : /Users/cthulhu/Desktop/Uploads/Elvis Costello - Unfaithful Music & Soundtrack Album (2015) [FLAC]/02 Poison Moon (Honky Tonky Demo).flac
    Pre-gap length : 00:00:38
    Track gain               : -3.53 dB
    Peak                     : 1.000000
    CRC32 hash (test run)    : 7E988D4E
    CRC32 hash               : 7E988D4E
    CRC32 hash (skip zero)   : 9626BCAE
    AccurateRip v1 signature : C9B4B588
    AccurateRip v2 signature : B4BBFC03
        ->Track not present in AccurateRip database.
    Statistics
        Read error                           : 0
        Jitter error (maybe fixed)           : 0
        Retry sector count                   : 0
        Damaged sector count                 : 0
Track 03
    Filename : /Users/cthulhu/Desktop/Uploads/Elvis Costello - Unfaithful Music & Soundtrack Album (2015) [FLAC]/03 Watching the Detectives (Single Version).flac
    Pre-gap length : 00:00:38
    Track gain               : -7.47 dB
    Peak                     : 0.910736
    CRC32 hash (test run)    : 51649C09
    CRC32 hash               : 51649C09
    CRC32 hash (skip zero)   : D932EF73
    AccurateRip v1 signature : D232C94E
    AccurateRip v2 signature : 0D1F3DAA
        ->Track not present in AccurateRip database.
    Statistics
        Read error                           : 0
        Jitter error (maybe fixed)           : 0
        Retry sector count                   : 0
        Damaged sector count                 : 0
Track 04
    Filename : /Users/cthulhu/Desktop/Uploads/Elvis Costello - Unfaithful Music & Soundtrack Album (2015) [FLAC]/04 Oliver's Army.flac
    Pre-gap length : 00:00:18
    Track gain               : -8.58 dB
    Peak                     : 0.976074
    CRC32 hash (test run)    : 060A20FA
    CRC32 hash               : 060A20FA
    CRC32 hash (skip zero)   : 61D5EF34
    AccurateRip v1 signature : 20373B86
    AccurateRip v2 signature : 9A77FA34
        ->Track not present in AccurateRip database.
    Statistics
        Read error                           : 0
        Jitter error (maybe fixed)           : 0
        Retry sector count                   : 0
        Damaged sector count                 : 0
Track 05
    Filename : /Users/cthulhu/Desktop/Uploads/Elvis Costello - Unfaithful Music & Soundtrack Album (2015) [FLAC]/05 Riot Act.flac
    Pre-gap length : 00:00:37
    Track gain               : -7.88 dB
    Peak                     : 0.994659
    CRC32 hash (test run)    : ECD0A28B
    CRC32 hash               : ECD0A28B
    CRC32 hash (skip zero)   : 51906AC8
    AccurateRip v1 signature : 1273F7DC
    AccurateRip v2 signature : 80E620CE
        ->Track not present in AccurateRip database.
    Statistics
        Read error                           : 0
        Jitter error (maybe fixed)           : 0
        Retry sector count                   : 0
        Damaged sector count                 : 0
Track 06
    Filename : /Users/cthulhu/Desktop/Uploads/Elvis Costello - Unfaithful Music & Soundtrack Album (2015) [FLAC]/06 New Lace Sleeves.flac
    Pre-gap length : 00:00:37
    Track gain               : -6.76 dB
    Peak                     : 0.930542
    CRC32 hash (test run)    : A3434CA1
    CRC32 hash               : A3434CA1
    CRC32 hash (skip zero)   : 54203C7B
    AccurateRip v1 signature : 5579137C
    AccurateRip v2 signature : 7ED32F7C
        ->Track not present in AccurateRip database.
    Statistics
        Read error                           : 0
        Jitter error (maybe fixed)           : 0
        Retry sector count                   : 0
        Damaged sector count                 : 0
Track 07
    Filename : /Users/cthulhu/Desktop/Uploads/Elvis Costello - Unfaithful Music & Soundtrack Album (2015) [FLAC]/07 Man Out of Time.flac
    Pre-gap length : 00:00:20
    Track gain               : -8.25 dB
    Peak                     : 0.891541
    CRC32 hash (test run)    : 4638A086
    CRC32 hash               : 4638A086
    CRC32 hash (skip zero)   : CCECA219
    AccurateRip v1 signature : BCD3E160
    AccurateRip v2 signature : 5236150D
        ->Track not present in AccurateRip database.
    Statistics
        Read error                           : 0
        Jitter error (maybe fixed)           : 0
        Retry sector count                   : 0
        Damaged sector count                 : 0
Track 08
    Filename : /Users/cthulhu/Desktop/Uploads/Elvis Costello - Unfaithful Music & Soundtrack Album (2015) [FLAC]/08 I Want You.flac
    Pre-gap length : 00:00:37
    Track gain               : -7.42 dB
    Peak                     : 0.995239
    CRC32 hash (test run)    : 4D8BAE5B
    CRC32 hash               : 4D8BAE5B
    CRC32 hash (skip zero)   : D8F4034E
    AccurateRip v1 signature : FB15626A
    AccurateRip v2 signature : 734A4DFA
        ->Track not present in AccurateRip database.
    Statistics
        Read error                           : 0
        Jitter error (maybe fixed)           : 0
        Retry sector count                   : 0
        Damaged sector count                 : 0
Track 09
    Filename : /Users/cthulhu/Desktop/Uploads/Elvis Costello - Unfaithful Music & Soundtrack Album (2015) [FLAC]/09 When I Was Cruel No. 2.flac
    Pre-gap length : 00:00:37
    Track gain               : -7.38 dB
    Peak                     : 0.889709
    CRC32 hash (test run)    : 5B46A814
    CRC32 hash               : 5B46A814
    CRC32 hash (skip zero)   : FC32F2AD
    AccurateRip v1 signature : ECF93894
    AccurateRip v2 signature : B73F357A
        ->Track not present in AccurateRip database.
    Statistics
        Read error                           : 0
        Jitter error (maybe fixed)           : 0
        Retry sector count                   : 0
        Damaged sector count                 : 0
Track 10
    Filename : /Users/cthulhu/Desktop/Uploads/Elvis Costello - Unfaithful Music & Soundtrack Album (2015) [FLAC]/10 Stranger In the House.flac
    Pre-gap length : 00:00:37
    Track gain               : -9.32 dB
    Peak                     : 0.998230
    CRC32 hash (test run)    : D2DA2A4B
    CRC32 hash               : D2DA2A4B
    CRC32 hash (skip zero)   : CABD18BE
    AccurateRip v1 signature : 4F315A4A
    AccurateRip v2 signature : 8BF900EC
        ->Track not present in AccurateRip database.
    Statistics
        Read error                           : 0
        Jitter error (maybe fixed)           : 0
        Retry sector count                   : 0
        Damaged sector count                 : 0
Track 11
    Filename : /Users/cthulhu/Desktop/Uploads/Elvis Costello - Unfaithful Music & Soundtrack Album (2015) [FLAC]/11 Beyond Belief.flac
    Pre-gap length : 00:00:37
    Track gain               : -8.06 dB
    Peak                     : 0.915283
    CRC32 hash (test run)    : E0D19BB3
    CRC32 hash               : E0D19BB3
    CRC32 hash (skip zero)   : 559BAEC4
    AccurateRip v1 signature : 057D7465
    AccurateRip v2 signature : E0F938AF
        ->Track not present in AccurateRip database.
    Statistics
        Read error                           : 0
        Jitter error (maybe fixed)           : 0
        Retry sector count                   : 0
        Damaged sector count                 : 0
Track 12
    Filename : /Users/cthulhu/Desktop/Uploads/Elvis Costello - Unfaithful Music & Soundtrack Album (2015) [FLAC]/12 Home Truth.flac
    Pre-gap length : 00:00:37
    Track gain               : -7.63 dB
    Peak                     : 0.998047
    CRC32 hash (test run)    : FD5F100D
    CRC32 hash               : FD5F100D
    CRC32 hash (skip zero)   : F8E478AD
    AccurateRip v1 signature : 72434BB0
    AccurateRip v2 signature : 70D46059
        ->Track not present in AccurateRip database.
    Statistics
        Read error                           : 0
        Jitter error (maybe fixed)           : 0
        Retry sector count                   : 0
        Damaged sector count                 : 0
Track 13
    Filename : /Users/cthulhu/Desktop/Uploads/Elvis Costello - Unfaithful Music & Soundtrack Album (2015) [FLAC]/13 Indoor Fireworks.flac
    Pre-gap length : 00:00:37
    Track gain               : -6.33 dB
    Peak                     : 0.911224
    CRC32 hash (test run)    : 4BCCACF0
    CRC32 hash               : 4BCCACF0
    CRC32 hash (skip zero)   : 8339BECB
    AccurateRip v1 signature : 9B2125A7
    AccurateRip v2 signature : 0E6B1986
        ->Track not present in AccurateRip database.
    Statistics
        Read error                           : 0
        Jitter error (maybe fixed)           : 0
        Retry sector count                   : 0
        Damaged sector count                 : 0
Track 14
    Filename : /Users/cthulhu/Desktop/Uploads/Elvis Costello - Unfaithful Music & Soundtrack Album (2015) [FLAC]/14 Shipbuilding.flac
    Pre-gap length : 00:00:37
    Track gain               : -6.00 dB
    Peak                     : 0.856628
    CRC32 hash (test run)    : 63D393A7
    CRC32 hash               : 63D393A7
    CRC32 hash (skip zero)   : A602D9A8
    AccurateRip v1 signature : F5C423C2
    AccurateRip v2 signature : 1C0D439A
        ->Track not present in AccurateRip database.
    Statistics
        Read error                           : 0
        Jitter error (maybe fixed)           : 0
        Retry sector count                   : 0
        Damaged sector count                 : 0
Track 15
    Filename : /Users/cthulhu/Desktop/Uploads/Elvis Costello - Unfaithful Music & Soundtrack Album (2015) [FLAC]/15 CINCO Minutos Con Vos.flac
    Pre-gap length : 00:00:37
    Track gain               : -5.87 dB
    Peak                     : 0.998199
    CRC32 hash (test run)    : FA3B95BD
    CRC32 hash               : FA3B95BD
    CRC32 hash (skip zero)   : 0C479E9C
    AccurateRip v1 signature : DD44C02E
    AccurateRip v2 signature : 330E5E23
        ->Track not present in AccurateRip database.
    Statistics
        Read error                           : 0
        Jitter error (maybe fixed)           : 0
        Retry sector count                   : 0
        Damaged sector count                 : 0
Track 16
    Filename : /Users/cthulhu/Desktop/Uploads/Elvis Costello - Unfaithful Music & Soundtrack Album (2015) [FLAC]/16 Bedlam.flac
    Pre-gap length : 00:00:37
    Track gain               : -7.54 dB
    Peak                     : 1.000000
    CRC32 hash (test run)    : A5AEFE3C
    CRC32 hash               : A5AEFE3C
    CRC32 hash (skip zero)   : 2A7E650F
    AccurateRip v1 signature : ECBEEA7A
    AccurateRip v2 signature : 2170D63A
        ->Track not present in AccurateRip database.
    Statistics
        Read error                           : 0
        Jitter error (maybe fixed)           : 0
        Retry sector count                   : 0
        Damaged sector count                 : 0
Track 17
    Filename : /Users/cthulhu/Desktop/Uploads/Elvis Costello - Unfaithful Music & Soundtrack Album (2015) [FLAC]/17 Deep Dark Truthful Mirror.flac
    Pre-gap length : 00:00:37
    Track gain               : -9.79 dB
    Peak                     : 1.000000
    CRC32 hash (test run)    : EB651E37
    CRC32 hash               : EB651E37
    CRC32 hash (skip zero)   : 7EB706F1
    AccurateRip v1 signature : 2E6CBB10
    AccurateRip v2 signature : 779F6891
        ->Track not present in AccurateRip database.
    Statistics
        Read error                           : 0
        Jitter error (maybe fixed)           : 0
        Retry sector count                   : 0
        Damaged sector count                 : 0
Track 18
    Filename : /Users/cthulhu/Desktop/Uploads/Elvis Costello - Unfaithful Music & Soundtrack Album (2015) [FLAC]/18 Ascension Day.flac
    Pre-gap length : 00:00:37
    Track gain               : -7.20 dB
    Peak                     : 0.946503
    CRC32 hash (test run)    : 360B2086
    CRC32 hash               : 360B2086
    CRC32 hash (skip zero)   : EF27452E
    AccurateRip v1 signature : 57D61BDE
    AccurateRip v2 signature : D76A20A1
        ->Track not present in AccurateRip database.
    Statistics
        Read error                           : 0
        Jitter error (maybe fixed)           : 0
        Retry sector count                   : 0
        Damaged sector count                 : 0
Track 19
    Filename : /Users/cthulhu/Desktop/Uploads/Elvis Costello - Unfaithful Music & Soundtrack Album (2015) [FLAC]/19 Red Cotton.flac
    Pre-gap length : 00:00:37
    Track gain               : -7.70 dB
    Peak                     : 0.985657
    CRC32 hash (test run)    : 30185081
    CRC32 hash               : 30185081
    CRC32 hash (skip zero)   : B1F864EB
    AccurateRip v1 signature : B69CA2CC
    AccurateRip v2 signature : 76C8C9F4
        ->Track not present in AccurateRip database.
    Statistics
        Read error                           : 0
        Jitter error (maybe fixed)           : 0
        Retry sector count                   : 0
        Damaged sector count                 : 0
No errors occurred
End of status report
-----BEGIN XLD SIGNATURE-----
pbGSa7iAPWP.FKL21g.K75Bi1raozpQFXubslPKDJDT3Z7kkCUwKFH8rEBhZ3lC9SgVEkGG_b5vFrbIx_nLaVPdqIIVW.2rYVAHs7tq
-----END XLD SIGNATURE-----
Код:
TITLE "Unfaithful Music & Soundtrack Album"
PERFORMER "Elvis Costello"
CATALOG 0602547523709
REM GENRE "Rock"
REM DATE "2015"
REM DISCNUMBER 1
REM TOTALDISCS 2
REM DISCID 1112B913
REM REPLAYGAIN_ALBUM_GAIN -7.76 dB
REM REPLAYGAIN_ALBUM_PEAK 1.000000
REM COMPILATION TRUE
FILE "01 Accidents Will Happen (Live at Hollywood High 1978).flac" WAVE
  TRACK 01 AUDIO
    TITLE "Accidents Will Happen (Live at Hollywood High 1978)"
    PERFORMER "Elvis Costello & The Attractions"
    ISRC USUG10914136
    REM REPLAYGAIN_TRACK_GAIN -6.68 dB
    REM REPLAYGAIN_TRACK_PEAK 0.998199
    INDEX 01 00:00:00
  TRACK 02 AUDIO
    TITLE "Poison Moon (Honky Tonky Demo)"
    PERFORMER "Elvis Costello"
    ISRC GBASQ9300022
    REM REPLAYGAIN_TRACK_GAIN -3.53 dB
    REM REPLAYGAIN_TRACK_PEAK 1.000000
    INDEX 00 03:27:29
FILE "02 Poison Moon (Honky Tonky Demo).flac" WAVE
    INDEX 01 00:00:00
  TRACK 03 AUDIO
    TITLE "Watching the Detectives (Single Version)"
    PERFORMER "Elvis Costello"
    ISRC GBASQ7700013
    REM REPLAYGAIN_TRACK_GAIN -7.47 dB
    REM REPLAYGAIN_TRACK_PEAK 0.910736
    INDEX 00 01:53:53
FILE "03 Watching the Detectives (Single Version).flac" WAVE
    INDEX 01 00:00:00
  TRACK 04 AUDIO
    TITLE "Oliver's Army"
    PERFORMER "Elvis Costello & The Attractions"
    ISRC GBASQ7900043
    REM REPLAYGAIN_TRACK_GAIN -8.58 dB
    REM REPLAYGAIN_TRACK_PEAK 0.976074
    INDEX 00 03:45:26
FILE "04 Oliver's Army.flac" WAVE
    INDEX 01 00:00:00
  TRACK 05 AUDIO
    TITLE "Riot Act"
    PERFORMER "Elvis Costello & The Attractions"
    ISRC GBASQ8000095
    REM REPLAYGAIN_TRACK_GAIN -7.88 dB
    REM REPLAYGAIN_TRACK_PEAK 0.994659
    INDEX 00 02:59:27
FILE "05 Riot Act.flac" WAVE
    INDEX 01 00:00:00
  TRACK 06 AUDIO
    TITLE "New Lace Sleeves"
    PERFORMER "Elvis Costello & The Attractions"
    SONGWRITER "Elvis Costello"
    ISRC GBAFR8110044
    REM REPLAYGAIN_TRACK_GAIN -6.76 dB
    REM REPLAYGAIN_TRACK_PEAK 0.930542
    INDEX 00 03:34:71
FILE "06 New Lace Sleeves.flac" WAVE
    INDEX 01 00:00:00
  TRACK 07 AUDIO
    TITLE "Man Out of Time"
    PERFORMER "Elvis Costello & The Attractions"
    SONGWRITER "Elvis Costello"
    ISRC GBASQ8200248
    REM REPLAYGAIN_TRACK_GAIN -8.25 dB
    REM REPLAYGAIN_TRACK_PEAK 0.891541
    INDEX 00 03:46:36
FILE "07 Man Out of Time.flac" WAVE
    INDEX 01 00:00:00
  TRACK 08 AUDIO
    TITLE "I Want You"
    PERFORMER "Elvis Costello & The Attractions"
    ISRC GBASQ8600339
    REM REPLAYGAIN_TRACK_GAIN -7.42 dB
    REM REPLAYGAIN_TRACK_PEAK 0.995239
    INDEX 00 05:27:23
FILE "08 I Want You.flac" WAVE
    INDEX 01 00:00:00
  TRACK 09 AUDIO
    TITLE "When I Was Cruel No. 2"
    PERFORMER "Elvis Costello"
    ISRC USIR20200032
    REM REPLAYGAIN_TRACK_GAIN -7.38 dB
    REM REPLAYGAIN_TRACK_PEAK 0.889709
    INDEX 00 06:41:11
FILE "09 When I Was Cruel No. 2.flac" WAVE
    INDEX 01 00:00:00
  TRACK 10 AUDIO
    TITLE "Stranger In the House"
    PERFORMER "George Jones & Elvis Costello"
    SONGWRITER "Elvis Costello/George Jones"
    ISRC USSM19915143
    REM REPLAYGAIN_TRACK_GAIN -9.32 dB
    REM REPLAYGAIN_TRACK_PEAK 0.998230
    INDEX 00 07:07:00
FILE "10 Stranger In the House.flac" WAVE
    INDEX 01 00:00:00
  TRACK 11 AUDIO
    TITLE "Beyond Belief"
    PERFORMER "Elvis Costello & The Attractions"
    ISRC GBASQ8200244
    REM REPLAYGAIN_TRACK_GAIN -8.06 dB
    REM REPLAYGAIN_TRACK_PEAK 0.915283
    INDEX 00 03:37:48
FILE "11 Beyond Belief.flac" WAVE
    INDEX 01 00:00:00
  TRACK 12 AUDIO
    TITLE "Home Truth"
    PERFORMER "Elvis Costello & The Attractions"
    SONGWRITER "Elvis Costello"
    ISRC GBASQ8400291
    REM REPLAYGAIN_TRACK_GAIN -7.63 dB
    REM REPLAYGAIN_TRACK_PEAK 0.998047
    INDEX 00 02:34:36
FILE "12 Home Truth.flac" WAVE
    INDEX 01 00:00:00
  TRACK 13 AUDIO
    TITLE "Indoor Fireworks"
    PERFORMER "Elvis Costello"
    ISRC GBASQ8600317
    REM REPLAYGAIN_TRACK_GAIN -6.33 dB
    REM REPLAYGAIN_TRACK_PEAK 0.911224
    INDEX 00 03:13:26
FILE "13 Indoor Fireworks.flac" WAVE
    INDEX 01 00:00:00
  TRACK 14 AUDIO
    TITLE "Shipbuilding"
    PERFORMER "Elvis Costello & The Attractions"
    SONGWRITER "Clive Langer/Elvis Costello"
    ISRC GBASQ8300275
    REM REPLAYGAIN_TRACK_GAIN -6.00 dB
    REM REPLAYGAIN_TRACK_PEAK 0.856628
    INDEX 00 04:09:39
FILE "14 Shipbuilding.flac" WAVE
    INDEX 01 00:00:00
  TRACK 15 AUDIO
    TITLE "CINCO Minutos Con Vos"
    PERFORMER "Elvis Costello & The Roots"
    SONGWRITER "Elvis Costello/Ahmir "?uestlove" Thompson"
    ISRC USUM71308790
    REM REPLAYGAIN_TRACK_GAIN -5.87 dB
    REM REPLAYGAIN_TRACK_PEAK 0.998199
    INDEX 00 04:53:43
FILE "15 CINCO Minutos Con Vos.flac" WAVE
    INDEX 01 00:00:00
  TRACK 16 AUDIO
    TITLE "Bedlam"
    PERFORMER "Elvis Costello & The Imposters"
    ISRC USMR10400113
    REM REPLAYGAIN_TRACK_GAIN -7.54 dB
    REM REPLAYGAIN_TRACK_PEAK 1.000000
    INDEX 00 05:00:57
FILE "16 Bedlam.flac" WAVE
    INDEX 01 00:00:00
  TRACK 17 AUDIO
    TITLE "Deep Dark Truthful Mirror"
    PERFORMER "Elvis Costello & The Attractions"
    ISRC USWB18900028
    REM REPLAYGAIN_TRACK_GAIN -9.79 dB
    REM REPLAYGAIN_TRACK_PEAK 1.000000
    INDEX 00 04:48:68
FILE "17 Deep Dark Truthful Mirror.flac" WAVE
    INDEX 01 00:00:00
  TRACK 18 AUDIO
    TITLE "Ascension Day"
    PERFORMER "Elvis Costello & Allen Toussaint"
    SONGWRITER "Roy Bird/Allen Toussaint"
    ISRC USUM70601602
    REM REPLAYGAIN_TRACK_GAIN -7.20 dB
    REM REPLAYGAIN_TRACK_PEAK 0.946503
    INDEX 00 04:04:28
FILE "18 Ascension Day.flac" WAVE
    INDEX 01 00:00:00
  TRACK 19 AUDIO
    TITLE "Red Cotton"
    PERFORMER "Elvis Costello"
    ISRC USHC40901145
    REM REPLAYGAIN_TRACK_GAIN -7.70 dB
    REM REPLAYGAIN_TRACK_PEAK 0.985657
    INDEX 00 02:57:66
FILE "19 Red Cotton.flac" WAVE
    INDEX 01 00:00:00
Код:
-----------------------
DON'T MODIFY THIS FILE
-----------------------
Performer: auCDtect Task Manager
Copyright (c) 2008, 2009 y-soft. All rights reserved
File: 02 Poison Moon (Honky Tonky Demo).flac
Packed/unpacked size: 10469166/20147276
MD5: 62D672785C6E1395D78FF282146F8C46/B3354526A228C05A9B0A051BEDEAE66B
Analizer: auCDtect: CD records authenticity detector, version 0.8.2
Copyright (c) 2004 Oleg Berngardt. All rights reserved.
Copyright (c) 2004 Alexander Djourik. All rights reserved.
Accuracy: -m0
Conclusion: This track looks like CDDA with probability 100%
Log Check Sum: DB6EFB67AEFBEE301A06BF536525A6488B50C7A6
--------------------CUT HERE--------------------
-----------------------
DON'T MODIFY THIS FILE
-----------------------
Performer: auCDtect Task Manager
Copyright (c) 2008, 2009 y-soft. All rights reserved
File: 01 Accidents Will Happen (Live at Hollywood High 1978).flac
Packed/unpacked size: 21194974/36672428
MD5: 9F9CD7B23330B46F35DD55C7E0A51E1B/D5A27A7D7EC8D30B389B2A5AD36C1320
Analizer: auCDtect: CD records authenticity detector, version 0.8.2
Copyright (c) 2004 Oleg Berngardt. All rights reserved.
Copyright (c) 2004 Alexander Djourik. All rights reserved.
Accuracy: -m0
Conclusion: This track looks like CDDA with probability 100%
Log Check Sum: 75A72FFE36CA7EACFC538AB4F53B751F42502AB3
--------------------CUT HERE--------------------
-----------------------
DON'T MODIFY THIS FILE
-----------------------
Performer: auCDtect Task Manager
Copyright (c) 2008, 2009 y-soft. All rights reserved
File: 03 Watching the Detectives (Single Version).flac
Packed/unpacked size: 27358112/39793532
MD5: C57D0F2B827EA1B67D97AF1E14FC9A40/2623C2C2C8D3815AF7BF27459EF0AF74
Analizer: auCDtect: CD records authenticity detector, version 0.8.2
Copyright (c) 2004 Oleg Berngardt. All rights reserved.
Copyright (c) 2004 Alexander Djourik. All rights reserved.
Accuracy: -m0
Conclusion: This track looks like CDDA with probability 100%
Log Check Sum: F4F14F908DD698354CBE024207F88FF8D3864D30
--------------------CUT HERE--------------------
-----------------------
DON'T MODIFY THIS FILE
-----------------------
Performer: auCDtect Task Manager
Copyright (c) 2008, 2009 y-soft. All rights reserved
File: 04 Oliver's Army.flac
Packed/unpacked size: 23140048/31726172
MD5: AB2C5F5E28FA4539CD639B51FF241025/ED17D48005DC04A4E3E99671802BF55D
Analizer: auCDtect: CD records authenticity detector, version 0.8.2
Copyright (c) 2004 Oleg Berngardt. All rights reserved.
Copyright (c) 2004 Alexander Djourik. All rights reserved.
Accuracy: -m0
Conclusion: This track looks like CDDA with probability 100%
Log Check Sum: 7795E38D7F8E04B0B3EAE3FA2D1B6F60653051D6
--------------------CUT HERE--------------------
-----------------------
DON'T MODIFY THIS FILE
-----------------------
Performer: auCDtect Task Manager
Copyright (c) 2008, 2009 y-soft. All rights reserved
File: 05 Riot Act.flac
Packed/unpacked size: 22714825/38003660
MD5: B5AF23AEDE322035B45AF7FEDEA53DB3/BF6484ECA2B6066D2B5715E0D105CC1F
Analizer: auCDtect: CD records authenticity detector, version 0.8.2
Copyright (c) 2004 Oleg Berngardt. All rights reserved.
Copyright (c) 2004 Alexander Djourik. All rights reserved.
Accuracy: -m0
Conclusion: This track looks like CDDA with probability 100%
Log Check Sum: 669F7A7E12013AFC8768751FAE7D6BBFE09EAFB6
--------------------CUT HERE--------------------
-----------------------
DON'T MODIFY THIS FILE
-----------------------
Performer: auCDtect Task Manager
Copyright (c) 2008, 2009 y-soft. All rights reserved
File: 06 New Lace Sleeves.flac
Packed/unpacked size: 26782217/39998156
MD5: C683B6CB89399E0CE1F68723C4F97517/DF8A392F6029F2C5D1613B7540555446
Analizer: auCDtect: CD records authenticity detector, version 0.8.2
Copyright (c) 2004 Oleg Berngardt. All rights reserved.
Copyright (c) 2004 Alexander Djourik. All rights reserved.
Accuracy: -m0
Conclusion: This track looks like CDDA with probability 100%
Log Check Sum: 2CCF06D9D3A3857FF8A74B4E614C195A074236DF
--------------------CUT HERE--------------------
-----------------------
DON'T MODIFY THIS FILE
-----------------------
Performer: auCDtect Task Manager
Copyright (c) 2008, 2009 y-soft. All rights reserved
File: 07 Man Out of Time.flac
Packed/unpacked size: 40212797/57823964
MD5: FCEBD3E21A6284A6389C7E3F7DAD5524/1F408A3EAF32A65DC9C0B8CBCEB05B5D
Analizer: auCDtect: CD records authenticity detector, version 0.8.2
Copyright (c) 2004 Oleg Berngardt. All rights reserved.
Copyright (c) 2004 Alexander Djourik. All rights reserved.
Accuracy: -m0
Conclusion: This track looks like CDDA with probability 100%
Log Check Sum: 288853A6F9E2DAA5C3186E911B691DC5C9B8EF95
--------------------CUT HERE--------------------
-----------------------
DON'T MODIFY THIS FILE
-----------------------
Performer: auCDtect Task Manager
Copyright (c) 2008, 2009 y-soft. All rights reserved
File: 08 I Want You.flac
Packed/unpacked size: 39626703/70849340
MD5: 1670EAED683561460D92A92ABF59783C/5FC49AE7DCA0C9D1F6402F89A73A99A4
Analizer: auCDtect: CD records authenticity detector, version 0.8.2
Copyright (c) 2004 Oleg Berngardt. All rights reserved.
Copyright (c) 2004 Alexander Djourik. All rights reserved.
Accuracy: -m0
Conclusion: This track looks like CDDA with probability 100%
Log Check Sum: FECBDF49354FA52091EE1A0076B4D178A4E7D366
--------------------CUT HERE--------------------
-----------------------
DON'T MODIFY THIS FILE
-----------------------
Performer: auCDtect Task Manager
Copyright (c) 2008, 2009 y-soft. All rights reserved
File: 10 Stranger In the House.flac
Packed/unpacked size: 24288399/38478764
MD5: CAFAE6AE43114A2128D283BDF3FA5756/5AE131C96897A4A1642B6EFADCE8DFE4
Analizer: auCDtect: CD records authenticity detector, version 0.8.2
Copyright (c) 2004 Oleg Berngardt. All rights reserved.
Copyright (c) 2004 Alexander Djourik. All rights reserved.
Accuracy: -m0
Conclusion: This track looks like CDDA with probability 100%
Log Check Sum: 27CAEE92EE9F43522E95BD5877CEB39C2B967D31
--------------------CUT HERE--------------------
-----------------------
DON'T MODIFY THIS FILE
-----------------------
Performer: auCDtect Task Manager
Copyright (c) 2008, 2009 y-soft. All rights reserved
File: 11 Beyond Belief.flac
Packed/unpacked size: 17796501/27337340
MD5: 480B5AA36E2933BECDCF1972B8BF4F25/6812EE86FDD132B21845E9C25BBD8902
Analizer: auCDtect: CD records authenticity detector, version 0.8.2
Copyright (c) 2004 Oleg Berngardt. All rights reserved.
Copyright (c) 2004 Alexander Djourik. All rights reserved.
Accuracy: -m0
Conclusion: This track looks like CDDA with probability 100%
Log Check Sum: 565AFE7B627CC7BAE0F2530B35304520225F5DD6
--------------------CUT HERE--------------------
-----------------------
DON'T MODIFY THIS FILE
-----------------------
Performer: auCDtect Task Manager
Copyright (c) 2008, 2009 y-soft. All rights reserved
File: 09 When I Was Cruel No. 2.flac
Packed/unpacked size: 45148771/75409868
MD5: 0E91EF4A5393804F0B6C8FF8EB553584/720A7EE2888F83137A21736968E4A000
Analizer: auCDtect: CD records authenticity detector, version 0.8.2
Copyright (c) 2004 Oleg Berngardt. All rights reserved.
Copyright (c) 2004 Alexander Djourik. All rights reserved.
Accuracy: -m0
Conclusion: This track looks like CDDA with probability 100%
Log Check Sum: 12050F4A042C8200527624CFF7A43C230DF08E20
--------------------CUT HERE--------------------
-----------------------
DON'T MODIFY THIS FILE
-----------------------
Performer: auCDtect Task Manager
Copyright (c) 2008, 2009 y-soft. All rights reserved
File: 12 Home Truth.flac
Packed/unpacked size: 22157188/34193420
MD5: 44D9C58FB630AF9D1CA67186C852A964/9BAB75379E5D579C944E7B128FF51826
Analizer: auCDtect: CD records authenticity detector, version 0.8.2
Copyright (c) 2004 Oleg Berngardt. All rights reserved.
Copyright (c) 2004 Alexander Djourik. All rights reserved.
Accuracy: -m0
Conclusion: This track looks like CDDA with probability 100%
Log Check Sum: 59E815C6A0D6B17E51BEB00FB4390C322C089201
--------------------CUT HERE--------------------
-----------------------
DON'T MODIFY THIS FILE
-----------------------
Performer: auCDtect Task Manager
Copyright (c) 2008, 2009 y-soft. All rights reserved
File: 13 Indoor Fireworks.flac
Packed/unpacked size: 24255250/44102396
MD5: 5BABA444BD0D3A26DAAFA8B42167133D/B4703F4B49D8179489DBB60A187F4A15
Analizer: auCDtect: CD records authenticity detector, version 0.8.2
Copyright (c) 2004 Oleg Berngardt. All rights reserved.
Copyright (c) 2004 Alexander Djourik. All rights reserved.
Accuracy: -m0
Conclusion: This track looks like CDDA with probability 100%
Log Check Sum: 3EE8A95B0CC313245BA63794072E403FDA1FD3C1
--------------------CUT HERE--------------------
-----------------------
DON'T MODIFY THIS FILE
-----------------------
Performer: auCDtect Task Manager
Copyright (c) 2008, 2009 y-soft. All rights reserved
File: 14 Shipbuilding.flac
Packed/unpacked size: 28847495/51873404
MD5: F3AC02D810B63458D111B7AF3FDDDAD8/AC512A04FB1BC251EF33AF94CBA2B75B
Analizer: auCDtect: CD records authenticity detector, version 0.8.2
Copyright (c) 2004 Oleg Berngardt. All rights reserved.
Copyright (c) 2004 Alexander Djourik. All rights reserved.
Accuracy: -m0
Conclusion: This track looks like CDDA with probability 100%
Log Check Sum: ACBE6A67D19EA751F5CBB1EC5D19984E0E863420
--------------------CUT HERE--------------------
-----------------------
DON'T MODIFY THIS FILE
-----------------------
Performer: auCDtect Task Manager
Copyright (c) 2008, 2009 y-soft. All rights reserved
File: 15 CINCO Minutos Con Vos.flac
Packed/unpacked size: 26387073/53141132
MD5: 37BCCACE85863789B19C08997C8B60AD/D7A578AC479A1FC39290187F621F9296
Analizer: auCDtect: CD records authenticity detector, version 0.8.2
Copyright (c) 2004 Oleg Berngardt. All rights reserved.
Copyright (c) 2004 Alexander Djourik. All rights reserved.
Accuracy: -m0
Conclusion: This track looks like CDDA with probability 99%
Log Check Sum: E6A958C6AC4FBCCD68D4D89BEBEDD5DC66C57A90
--------------------CUT HERE--------------------
-----------------------
DON'T MODIFY THIS FILE
-----------------------
Performer: auCDtect Task Manager
Copyright (c) 2008, 2009 y-soft. All rights reserved
File: 17 Deep Dark Truthful Mirror.flac
Packed/unpacked size: 28509424/43194524
MD5: 1B1FDF0BAC427A44C15844DEE6A74D54/23FE0D35D796A267B53819217FF9E21B
Analizer: auCDtect: CD records authenticity detector, version 0.8.2
Copyright (c) 2004 Oleg Berngardt. All rights reserved.
Copyright (c) 2004 Alexander Djourik. All rights reserved.
Accuracy: -m0
Conclusion: This track looks like CDDA with probability 100%
Log Check Sum: E71453C1CD39452FE4AEC81450CB39B92F277AF0
--------------------CUT HERE--------------------
-----------------------
DON'T MODIFY THIS FILE
-----------------------
Performer: auCDtect Task Manager
Copyright (c) 2008, 2009 y-soft. All rights reserved
File: 16 Bedlam.flac
Packed/unpacked size: 36580448/51050204
MD5: 9E2ECF34A184D924BFAE48C34F757F79/F577CED8F0B3577D86A4CB4A9FC33978
Analizer: auCDtect: CD records authenticity detector, version 0.8.2
Copyright (c) 2004 Oleg Berngardt. All rights reserved.
Copyright (c) 2004 Alexander Djourik. All rights reserved.
Accuracy: -m0
Conclusion: This track looks like CDDA with probability 99%
Log Check Sum: 7DD6673F311F059B869D6C488F649C517D375EC8
--------------------CUT HERE--------------------
-----------------------
DON'T MODIFY THIS FILE
-----------------------
Performer: auCDtect Task Manager
Copyright (c) 2008, 2009 y-soft. All rights reserved
File: 18 Ascension Day.flac
Packed/unpacked size: 15453837/31465100
MD5: 1D664EF12CD9B9A9C03211DFB0209C5A/7436A53905A6FAA2F858376DF2B5E8EC
Analizer: auCDtect: CD records authenticity detector, version 0.8.2
Copyright (c) 2004 Oleg Berngardt. All rights reserved.
Copyright (c) 2004 Alexander Djourik. All rights reserved.
Accuracy: -m0
Conclusion: This track looks like CDDA with probability 100%
Log Check Sum: 15E1D82DA88A41E4642D4848C525953847F5776B
--------------------CUT HERE--------------------
-----------------------
DON'T MODIFY THIS FILE
-----------------------
Performer: auCDtect Task Manager
Copyright (c) 2008, 2009 y-soft. All rights reserved
File: 19 Red Cotton.flac
Packed/unpacked size: 35802526/60300620
MD5: 088629600AA04E9AF7A504847C8A908D/118B4768FC761030E98E810D6DC3B787
Analizer: auCDtect: CD records authenticity detector, version 0.8.2
Copyright (c) 2004 Oleg Berngardt. All rights reserved.
Copyright (c) 2004 Alexander Djourik. All rights reserved.
Accuracy: -m0
Conclusion: This track looks like CDDA with probability 100%
Log Check Sum: CFBB674C78574AFADC05BE7E8D4279783E7EF4DB
01. Elvis Costello - Veronica (Demo) (B-side to "So Like Candy," 1991 - original version appears on Spike, 1989)
02. Elvis Costello with Burt Bacharach - In the Darkest Place (from Painted from Memory, 1998)
03. Elvis Costello and The Attractions - I Want to Vanish (from All This Useless Beauty, 1996)
04. Elvis Costello with Brian Eno - My Dark Life (from Songs in the Key of X, 1996)
05. Elvis Costello - The Other Side of Summer (from Mighty Like a Rose, 1991)
06. Elvis Costello - London's Brilliant Parade (from Brutal Youth, 1994)
07. Elvis Costello - Ghost Train (B-side to "New Amsterdam," 1980)
08. The Costello Show featuring His Confederates - Suit of Lights (from King of America, 1986)
09. Elvis Costello and The Sugarcanes - Jimmie Standing in the Rain (from National Ransom, 2010)
10. Elvis Costello & The Brodsky Quartet - The Birds Will Still Be Singing (from The Juliet Letters, 1993)
11. Elvis Costello and The Roots - Wise Up Ghost (from Wise Up Ghost, 2013)
12. Elvis Costello and The Attractions - Almost Blue (from Imperial Bedroom, 1982)
13. Elvis Costello - All the Rage (from Brutal Youth, 1994)
14. Elvis Costello - Couldn't Call It Unexpected No. 4 (from Mighty Like a Rose, 1991)
15. Elvis Costello - Alison (from My Aim is True, 1977)
16. Elvis Costello and The Imposters - My Three Sons (from Momofuku, 2008)
17. Elvis Costello - I'm in the Mood Again (from North, 2003)
18. Rosanne Cash, Elvis Costello and Kris Kristofferson * - April 5th
19. D.P. Costello * - I Can't Turn It Off
20. Elvis Costello -Sketches from 'Unfaithful Music & Disappearing Ink'

Track 01 - First issued on the B-side of "So Like Candy" (1991)
Track 02 - From the album "Painted From Memory" (1998)
Track 03 - From the album "All This Useless Beauty" (1996)
Track 04 - First issued on "Songs In The Key Of X: Music from and inspired by The X-Files" (1996)
Track 05 - From the album "Might Like A Rose" (1991)
Track 06 - From the album "Brutal Youth" (1994)
Track 07 - First issued as the B-side of "New Amsterdam" (1980)
Track 08 - From the album "King Of America"
Track 09 - From the album "National Ransom" (2010)
Track 10 - From the album "The Juliet Letters" (1993)
Track 11 - From the album "Wise Up Ghost" (2013)
Track 12 - From the album "Imperial Bedroom" (1982)
Track 13 - From the album "Brutal Youth" (1994)
Track 14 - From the album "Mighty Like A Rose" (1991)
Track 15 - From the album "My Aim Is True" (1977)
Track 16 - From the album "Momofuku" (2008)
Track 17 - From the album "North" (2003)
Track 18 - Previously Unreleased (2008)
Track 19 - Previously Unreleased (1975)
Код:
X Lossless Decoder version 20141129a (148.2)
XLD extraction logfile from 2015-10-25 14:04:50 -0400
Elvis Costello / Unfaithful Music & Soundtrack Album (Disc 2)
Used drive : Optiarc DVD RW AD-7760H (revision 1.00)
Media type : Pressed CD
Ripper mode             : XLD Secure Ripper
Disable audio cache     : OK for the drive with a cache less than 1375KiB
Make use of C2 pointers : NO
Read offset correction  : 48
Max retry count         : 20
Gap status              : Analyzed, Appended (except HTOA)
TOC of the extracted CD
     Track |   Start  |  Length  | Start sector | End sector
    ---------------------------------------------------------
        1  | 00:00:00 | 02:59:24 |         0    |    13448
        2  | 02:59:24 | 04:17:57 |     13449    |    32780
        3  | 07:17:06 | 03:14:42 |     32781    |    47372
        4  | 10:31:48 | 06:21:22 |     47373    |    75969
        5  | 16:52:70 | 03:56:12 |     75970    |    93681
        6  | 20:49:07 | 04:24:19 |     93682    |   113500
        7  | 25:13:26 | 03:07:74 |    113501    |   127599
        8  | 28:21:25 | 04:06:33 |    127600    |   146082
        9  | 32:27:58 | 04:15:07 |    146083    |   165214
       10  | 36:42:65 | 04:24:37 |    165215    |   185051
       11  | 41:07:27 | 06:27:16 |    185052    |   214092
       12  | 47:34:43 | 02:51:05 |    214093    |   226922
       13  | 50:25:48 | 03:51:46 |    226923    |   244293
       14  | 54:17:19 | 03:47:22 |    244294    |   261340
       15  | 58:04:41 | 03:24:21 |    261341    |   276661
       16  | 61:28:62 | 03:05:50 |    276662    |   290586
       17  | 64:34:37 | 02:34:74 |    290587    |   302210
       18  | 67:09:36 | 04:31:07 |    302211    |   322542
       19  | 71:40:43 | 03:41:31 |    322543    |   339148
       20  | 75:21:74 | 04:21:61 |    339149    |   358784
AccurateRip Summary
    Disc not found in AccurateRip DB.
All Tracks
    Album gain               : -7.38 dB
    Peak                     : 1.000000
    Statistics
        Read error                           : 0
        Jitter error (maybe fixed)           : 0
        Retry sector count                   : 0
        Damaged sector count                 : 0
Track 01
    Filename : /Users/cthulhu/Desktop/Uploads/Elvis Costello - Unfaithful Music & Soundtrack Album (Disc 2) (2015) [FLAC]/01 Veronica (Demo).flac
    Pre-gap length : 00:02:00
    Track gain               : -8.94 dB
    Peak                     : 0.986420
    CRC32 hash (test run)    : 6E3B9CD6
    CRC32 hash               : 6E3B9CD6
    CRC32 hash (skip zero)   : 20E7A350
    AccurateRip v1 signature : 64D0ADE9
    AccurateRip v2 signature : E794A64B
        ->Track not present in AccurateRip database.
    Statistics
        Read error                           : 0
        Jitter error (maybe fixed)           : 0
        Retry sector count                   : 0
        Damaged sector count                 : 0
Track 02
    Filename : /Users/cthulhu/Desktop/Uploads/Elvis Costello - Unfaithful Music & Soundtrack Album (Disc 2) (2015) [FLAC]/02 In the Darkest Place.flac
    Pre-gap length : 00:00:38
    Track gain               : -6.53 dB
    Peak                     : 0.991089
    CRC32 hash (test run)    : 850DA4F3
    CRC32 hash               : 850DA4F3
    CRC32 hash (skip zero)   : 31777235
    AccurateRip v1 signature : E181BC4C
    AccurateRip v2 signature : DF6F76B1
        ->Track not present in AccurateRip database.
    Statistics
        Read error                           : 0
        Jitter error (maybe fixed)           : 0
        Retry sector count                   : 0
        Damaged sector count                 : 0
Track 03
    Filename : /Users/cthulhu/Desktop/Uploads/Elvis Costello - Unfaithful Music & Soundtrack Album (Disc 2) (2015) [FLAC]/03 I Want to Vanish.flac
    Pre-gap length : 00:00:38
    Track gain               : -6.23 dB
    Peak                     : 0.977020
    CRC32 hash (test run)    : 2CFAFE52
    CRC32 hash               : 2CFAFE52
    CRC32 hash (skip zero)   : 4B5BE0DC
    AccurateRip v1 signature : A6EF3E1A
    AccurateRip v2 signature : 4D0E84DD
        ->Track not present in AccurateRip database.
    Statistics
        Read error                           : 0
        Jitter error (maybe fixed)           : 0
        Retry sector count                   : 0
        Damaged sector count                 : 0
Track 04
    Filename : /Users/cthulhu/Desktop/Uploads/Elvis Costello - Unfaithful Music & Soundtrack Album (Disc 2) (2015) [FLAC]/04 My Dark Life.flac
    Pre-gap length : 00:00:38
    Track gain               : -5.42 dB
    Peak                     : 0.999908
    CRC32 hash (test run)    : 7B730C8F
    CRC32 hash               : 7B730C8F
    CRC32 hash (skip zero)   : 6DB92F8A
    AccurateRip v1 signature : FAFB253B
    AccurateRip v2 signature : 10B4961C
        ->Track not present in AccurateRip database.
    Statistics
        Read error                           : 0
        Jitter error (maybe fixed)           : 0
        Retry sector count                   : 0
        Damaged sector count                 : 0
Track 05
    Filename : /Users/cthulhu/Desktop/Uploads/Elvis Costello - Unfaithful Music & Soundtrack Album (Disc 2) (2015) [FLAC]/05 The Other Side of Summer.flac
    Pre-gap length : 00:00:38
    Track gain               : -8.29 dB
    Peak                     : 1.000000
    CRC32 hash (test run)    : 7D7451EC
    CRC32 hash               : 7D7451EC
    CRC32 hash (skip zero)   : 51C3582B
    AccurateRip v1 signature : 8B59B413
    AccurateRip v2 signature : 4C5BE6F0
        ->Track not present in AccurateRip database.
    Statistics
        Read error                           : 0
        Jitter error (maybe fixed)           : 0
        Retry sector count                   : 0
        Damaged sector count                 : 0
Track 06
    Filename : /Users/cthulhu/Desktop/Uploads/Elvis Costello - Unfaithful Music & Soundtrack Album (Disc 2) (2015) [FLAC]/06 London's Brilliant Parade.flac
    Pre-gap length : 00:00:38
    Track gain               : -7.61 dB
    Peak                     : 0.999969
    CRC32 hash (test run)    : 07EF148D
    CRC32 hash               : 07EF148D
    CRC32 hash (skip zero)   : 6A7CF35C
    AccurateRip v1 signature : C8D1DE6D
    AccurateRip v2 signature : 11B8AD7C
        ->Track not present in AccurateRip database.
    Statistics
        Read error                           : 0
        Jitter error (maybe fixed)           : 0
        Retry sector count                   : 0
        Damaged sector count                 : 0
Track 07
    Filename : /Users/cthulhu/Desktop/Uploads/Elvis Costello - Unfaithful Music & Soundtrack Album (Disc 2) (2015) [FLAC]/07 Ghost Train.flac
    Pre-gap length : 00:00:38
    Track gain               : -6.53 dB
    Peak                     : 0.936554
    CRC32 hash (test run)    : D902CA53
    CRC32 hash               : D902CA53
    CRC32 hash (skip zero)   : 07FAA717
    AccurateRip v1 signature : 700307B5
    AccurateRip v2 signature : AA320D70
        ->Track not present in AccurateRip database.
    Statistics
        Read error                           : 0
        Jitter error (maybe fixed)           : 0
        Retry sector count                   : 0
        Damaged sector count                 : 0
Track 08
    Filename : /Users/cthulhu/Desktop/Uploads/Elvis Costello - Unfaithful Music & Soundtrack Album (Disc 2) (2015) [FLAC]/08 Suit of Lights.flac
    Pre-gap length : 00:00:38
    Track gain               : -7.56 dB
    Peak                     : 0.938721
    CRC32 hash (test run)    : 59280113
    CRC32 hash               : 59280113
    CRC32 hash (skip zero)   : 43CB3654
    AccurateRip v1 signature : 518F78CF
    AccurateRip v2 signature : 32B9C537
        ->Track not present in AccurateRip database.
    Statistics
        Read error                           : 0
        Jitter error (maybe fixed)           : 0
        Retry sector count                   : 0
        Damaged sector count                 : 0
Track 09
    Filename : /Users/cthulhu/Desktop/Uploads/Elvis Costello - Unfaithful Music & Soundtrack Album (Disc 2) (2015) [FLAC]/09 Jimmie Standing In the Rain.flac
    Pre-gap length : 00:00:38
    Track gain               : -6.79 dB
    Peak                     : 0.984985
    CRC32 hash (test run)    : 8C9BAC8C
    CRC32 hash               : 8C9BAC8C
    CRC32 hash (skip zero)   : 1883C472
    AccurateRip v1 signature : 2DFB3E4C
    AccurateRip v2 signature : DA51F883
        ->Track not present in AccurateRip database.
    Statistics
        Read error                           : 0
        Jitter error (maybe fixed)           : 0
        Retry sector count                   : 0
        Damaged sector count                 : 0
Track 10
    Filename : /Users/cthulhu/Desktop/Uploads/Elvis Costello - Unfaithful Music & Soundtrack Album (Disc 2) (2015) [FLAC]/10 The Birds Will Still Be Singing.flac
    Pre-gap length : 00:01:66
    Track gain               : -4.28 dB
    Peak                     : 0.886292
    CRC32 hash (test run)    : EBECD6B9
    CRC32 hash               : EBECD6B9
    CRC32 hash (skip zero)   : 5FCD7A50
    AccurateRip v1 signature : 1FDAA273
    AccurateRip v2 signature : 5675D4D0
        ->Track not present in AccurateRip database.
    Statistics
        Read error                           : 0
        Jitter error (maybe fixed)           : 0
        Retry sector count                   : 0
        Damaged sector count                 : 0
Track 11
    Filename : /Users/cthulhu/Desktop/Uploads/Elvis Costello - Unfaithful Music & Soundtrack Album (Disc 2) (2015) [FLAC]/11 Wise Up Ghost.flac
    Pre-gap length : 00:00:52
    Track gain               : -7.56 dB
    Peak                     : 0.995239
    CRC32 hash (test run)    : 5CC9E6C0
    CRC32 hash               : 5CC9E6C0
    CRC32 hash (skip zero)   : 05A4ADFF
    AccurateRip v1 signature : 660708CE
    AccurateRip v2 signature : CFC527DA
        ->Track not present in AccurateRip database.
    Statistics
        Read error                           : 0
        Jitter error (maybe fixed)           : 0
        Retry sector count                   : 0
        Damaged sector count                 : 0
Track 12
    Filename : /Users/cthulhu/Desktop/Uploads/Elvis Costello - Unfaithful Music & Soundtrack Album (Disc 2) (2015) [FLAC]/12 Almost Blue.flac
    Pre-gap length : 00:00:37
    Track gain               : -6.14 dB
    Peak                     : 0.998199
    CRC32 hash (test run)    : 05BC68BE
    CRC32 hash               : 05BC68BE
    CRC32 hash (skip zero)   : AD4E63DD
    AccurateRip v1 signature : 5D3E424F
    AccurateRip v2 signature : F93DED3D
        ->Track not present in AccurateRip database.
    Statistics
        Read error                           : 0
        Jitter error (maybe fixed)           : 0
        Retry sector count                   : 0
        Damaged sector count                 : 0
Track 13
    Filename : /Users/cthulhu/Desktop/Uploads/Elvis Costello - Unfaithful Music & Soundtrack Album (Disc 2) (2015) [FLAC]/13 All the Rage.flac
    Pre-gap length : 00:00:37
    Track gain               : -8.31 dB
    Peak                     : 0.995972
    CRC32 hash (test run)    : E3B7E580
    CRC32 hash               : E3B7E580
    CRC32 hash (skip zero)   : 5A632989
    AccurateRip v1 signature : 5E609949
    AccurateRip v2 signature : 930FAD52
        ->Track not present in AccurateRip database.
    Statistics
        Read error                           : 0
        Jitter error (maybe fixed)           : 0
        Retry sector count                   : 0
        Damaged sector count                 : 0
Track 14
    Filename : /Users/cthulhu/Desktop/Uploads/Elvis Costello - Unfaithful Music & Soundtrack Album (Disc 2) (2015) [FLAC]/14 Couldn't Call It Unexpected No. 4.flac
    Pre-gap length : 00:00:37
    Track gain               : -7.34 dB
    Peak                     : 1.000000
    CRC32 hash (test run)    : 9BEC47FD
    CRC32 hash               : 9BEC47FD
    CRC32 hash (skip zero)   : 1FA998C0
    AccurateRip v1 signature : 3B70B4B8
    AccurateRip v2 signature : D6414DF7
        ->Track not present in AccurateRip database.
    Statistics
        Read error                           : 0
        Jitter error (maybe fixed)           : 0
        Retry sector count                   : 0
        Damaged sector count                 : 0
Track 15
    Filename : /Users/cthulhu/Desktop/Uploads/Elvis Costello - Unfaithful Music & Soundtrack Album (Disc 2) (2015) [FLAC]/15 Alison.flac
    Pre-gap length : 00:00:37
    Track gain               : -7.67 dB
    Peak                     : 0.953278
    CRC32 hash (test run)    : 62016A48
    CRC32 hash               : 62016A48
    CRC32 hash (skip zero)   : 5C589189
    AccurateRip v1 signature : 1C210E06
    AccurateRip v2 signature : 249A7328
        ->Track not present in AccurateRip database.
    Statistics
        Read error                           : 0
        Jitter error (maybe fixed)           : 0
        Retry sector count                   : 0
        Damaged sector count                 : 0
Track 16
    Filename : /Users/cthulhu/Desktop/Uploads/Elvis Costello - Unfaithful Music & Soundtrack Album (Disc 2) (2015) [FLAC]/16 My Three Sons.flac
    Pre-gap length : 00:00:37
    Track gain               : -6.54 dB
    Peak                     : 0.998199
    CRC32 hash (test run)    : 9B5E9BB9
    CRC32 hash               : 9B5E9BB9
    CRC32 hash (skip zero)   : 3ADFBB40
    AccurateRip v1 signature : EE9210AC
    AccurateRip v2 signature : D8E6BC24
        ->Track not present in AccurateRip database.
    Statistics
        Read error                           : 0
        Jitter error (maybe fixed)           : 0
        Retry sector count                   : 0
        Damaged sector count                 : 0
Track 17
    Filename : /Users/cthulhu/Desktop/Uploads/Elvis Costello - Unfaithful Music & Soundtrack Album (Disc 2) (2015) [FLAC]/17 I'm In the Mood Again.flac
    Pre-gap length : 00:00:37
    Track gain               : -6.71 dB
    Peak                     : 0.917664
    CRC32 hash (test run)    : 47BF3EE4
    CRC32 hash               : 47BF3EE4
    CRC32 hash (skip zero)   : 95A29738
    AccurateRip v1 signature : 3D2C738F
    AccurateRip v2 signature : 12E06699
        ->Track not present in AccurateRip database.
    Statistics
        Read error                           : 0
        Jitter error (maybe fixed)           : 0
        Retry sector count                   : 0
        Damaged sector count                 : 0
Track 18
    Filename : /Users/cthulhu/Desktop/Uploads/Elvis Costello - Unfaithful Music & Soundtrack Album (Disc 2) (2015) [FLAC]/18 April 5th.flac
    Pre-gap length : 00:00:37
    Track gain               : -8.10 dB
    Peak                     : 0.994659
    CRC32 hash (test run)    : 86E983FA
    CRC32 hash               : 86E983FA
    CRC32 hash (skip zero)   : 679CBDC1
    AccurateRip v1 signature : 251CCDF2
    AccurateRip v2 signature : FE0F3BC2
        ->Track not present in AccurateRip database.
    Statistics
        Read error                           : 0
        Jitter error (maybe fixed)           : 0
        Retry sector count                   : 0
        Damaged sector count                 : 0
Track 19
    Filename : /Users/cthulhu/Desktop/Uploads/Elvis Costello - Unfaithful Music & Soundtrack Album (Disc 2) (2015) [FLAC]/19 I Can't Turn It Off.flac
    Pre-gap length : 00:00:37
    Track gain               : -7.24 dB
    Peak                     : 0.994659
    CRC32 hash (test run)    : DFE353DA
    CRC32 hash               : DFE353DA
    CRC32 hash (skip zero)   : 9FDF7475
    AccurateRip v1 signature : 5831A530
    AccurateRip v2 signature : AFF0EAA5
        ->Track not present in AccurateRip database.
    Statistics
        Read error                           : 0
        Jitter error (maybe fixed)           : 0
        Retry sector count                   : 0
        Damaged sector count                 : 0
Track 20
    Filename : /Users/cthulhu/Desktop/Uploads/Elvis Costello - Unfaithful Music & Soundtrack Album (Disc 2) (2015) [FLAC]/20 Sketches from 'Unfaithful Music & Disappearing Ink'.flac
    Pre-gap length : 00:00:37
    Track gain               : -1.60 dB
    Peak                     : 0.985260
    CRC32 hash (test run)    : C9829853
    CRC32 hash               : C9829853
    CRC32 hash (skip zero)   : 10BF4285
    AccurateRip v1 signature : CF9FB352
    AccurateRip v2 signature : B1DAEABA
        ->Track not present in AccurateRip database.
    Statistics
        Read error                           : 0
        Jitter error (maybe fixed)           : 0
        Retry sector count                   : 0
        Damaged sector count                 : 0
No errors occurred
End of status report
-----BEGIN XLD SIGNATURE-----
C2eLsIMX0PIyvhFUIoGNQqTihX2030yqznqhpMuKShtBoY6tNUQhKZRbX9tJy4NGWS_Mf6on0KTbTXCN.N.rsgNPi_0BR.OWOQwESBS
-----END XLD SIGNATURE-----
Код:
TITLE "Unfaithful Music & Soundtrack Album (Disc 2)"
PERFORMER "Elvis Costello"
CATALOG 0602547523716
REM GENRE "Rock"
REM DATE "2015"
REM DISCNUMBER 2
REM TOTALDISCS 2
REM DISCID 1512AF14
REM REPLAYGAIN_ALBUM_GAIN -7.38 dB
REM REPLAYGAIN_ALBUM_PEAK 1.000000
REM COMPILATION TRUE
FILE "01 Veronica (Demo).flac" WAVE
  TRACK 01 AUDIO
    TITLE "Veronica (Demo)"
    PERFORMER "Elvis Costello"
    ISRC USRHD1200118
    REM REPLAYGAIN_TRACK_GAIN -8.94 dB
    REM REPLAYGAIN_TRACK_PEAK 0.986420
    INDEX 01 00:00:00
  TRACK 02 AUDIO
    TITLE "In the Darkest Place"
    PERFORMER "Elvis Costello & Burt Bacharach"
    SONGWRITER "Burt Bacharach"
    ISRC USMR19889250
    REM REPLAYGAIN_TRACK_GAIN -6.53 dB
    REM REPLAYGAIN_TRACK_PEAK 0.991089
    INDEX 00 02:58:61
FILE "02 In the Darkest Place.flac" WAVE
    INDEX 01 00:00:00
  TRACK 03 AUDIO
    TITLE "I Want to Vanish"
    PERFORMER "Elvis Costello & Steve Nieve"
    ISRC USWB19500347
    REM REPLAYGAIN_TRACK_GAIN -6.23 dB
    REM REPLAYGAIN_TRACK_PEAK 0.977020
    INDEX 00 04:17:19
FILE "03 I Want to Vanish.flac" WAVE
    INDEX 01 00:00:00
  TRACK 04 AUDIO
    TITLE "My Dark Life"
    PERFORMER "Elvis Costello & Brian Eno"
    ISRC USWB19701144
    REM REPLAYGAIN_TRACK_GAIN -5.42 dB
    REM REPLAYGAIN_TRACK_PEAK 0.999908
    INDEX 00 03:14:04
FILE "04 My Dark Life.flac" WAVE
    INDEX 01 00:00:00
  TRACK 05 AUDIO
    TITLE "The Other Side of Summer"
    PERFORMER "Elvis Costello"
    SONGWRITER "Elvis Costello"
    ISRC USWB10202891
    REM REPLAYGAIN_TRACK_GAIN -8.29 dB
    REM REPLAYGAIN_TRACK_PEAK 1.000000
    INDEX 00 06:20:59
FILE "05 The Other Side of Summer.flac" WAVE
    INDEX 01 00:00:00
  TRACK 06 AUDIO
    TITLE "London's Brilliant Parade"
    PERFORMER "Elvis Costello"
    ISRC USWB19400276
    REM REPLAYGAIN_TRACK_GAIN -7.61 dB
    REM REPLAYGAIN_TRACK_PEAK 0.999969
    INDEX 00 03:55:49
FILE "06 London's Brilliant Parade.flac" WAVE
    INDEX 01 00:00:00
  TRACK 07 AUDIO
    TITLE "Ghost Train"
    PERFORMER "Elvis Costello"
    ISRC USUG10800889
    REM REPLAYGAIN_TRACK_GAIN -6.53 dB
    REM REPLAYGAIN_TRACK_PEAK 0.936554
    INDEX 00 04:23:56
FILE "07 Ghost Train.flac" WAVE
    INDEX 01 00:00:00
  TRACK 08 AUDIO
    TITLE "Suit of Lights"
    PERFORMER "The Costello Show Featuring His Confederates"
    ISRC GBASQ8600325
    REM REPLAYGAIN_TRACK_GAIN -7.56 dB
    REM REPLAYGAIN_TRACK_PEAK 0.938721
    INDEX 00 03:07:36
FILE "08 Suit of Lights.flac" WAVE
    INDEX 01 00:00:00
  TRACK 09 AUDIO
    TITLE "Jimmie Standing In the Rain"
    PERFORMER "Elvis Costello & The Sugarcanes"
    ISRC USHC41001746
    REM REPLAYGAIN_TRACK_GAIN -6.79 dB
    REM REPLAYGAIN_TRACK_PEAK 0.984985
    INDEX 00 04:05:70
FILE "09 Jimmie Standing In the Rain.flac" WAVE
    INDEX 01 00:00:00
  TRACK 10 AUDIO
    TITLE "The Birds Will Still Be Singing"
    PERFORMER "Elvis Costello & The Brodsky Quartet"
    SONGWRITER "Declan MacManus"
    ISRC USWB10600571
    REM REPLAYGAIN_TRACK_GAIN -4.28 dB
    REM REPLAYGAIN_TRACK_PEAK 0.886292
    INDEX 00 04:13:16
FILE "10 The Birds Will Still Be Singing.flac" WAVE
    INDEX 01 00:00:00
  TRACK 11 AUDIO
    TITLE "Wise Up Ghost"
    PERFORMER "Elvis Costello & The Roots"
    SONGWRITER "Ahmir "?uestlove" Thompson/Elvis Costello"
    ISRC USUM71308799
    REM REPLAYGAIN_TRACK_GAIN -7.56 dB
    REM REPLAYGAIN_TRACK_PEAK 0.995239
    INDEX 00 04:23:60
FILE "11 Wise Up Ghost.flac" WAVE
    INDEX 01 00:00:00
  TRACK 12 AUDIO
    TITLE "Almost Blue"
    PERFORMER "Elvis Costello & The Attractions"
    ISRC GBASQ8200249
    REM REPLAYGAIN_TRACK_GAIN -6.14 dB
    REM REPLAYGAIN_TRACK_PEAK 0.998199
    INDEX 00 06:26:54
FILE "12 Almost Blue.flac" WAVE
    INDEX 01 00:00:00
  TRACK 13 AUDIO
    TITLE "All the Rage"
    PERFORMER "Elvis Costello"
    SONGWRITER "Elvis Costello"
    ISRC USWB19400277
    REM REPLAYGAIN_TRACK_GAIN -8.31 dB
    REM REPLAYGAIN_TRACK_PEAK 0.995972
    INDEX 00 02:50:43
FILE "13 All the Rage.flac" WAVE
    INDEX 01 00:00:00
  TRACK 14 AUDIO
    TITLE "Couldn't Call It Unexpected No. 4"
    PERFORMER "Elvis Costello"
    ISRC USWB10202904
    REM REPLAYGAIN_TRACK_GAIN -7.34 dB
    REM REPLAYGAIN_TRACK_PEAK 1.000000
    INDEX 00 03:51:09
FILE "14 Couldn't Call It Unexpected No. 4.flac" WAVE
    INDEX 01 00:00:00
  TRACK 15 AUDIO
    TITLE "Alison"
    PERFORMER "Elvis Costello"
    SONGWRITER "Elvis Costello"
    ISRC GBASQ7700005
    REM REPLAYGAIN_TRACK_GAIN -7.67 dB
    REM REPLAYGAIN_TRACK_PEAK 0.953278
    INDEX 00 03:46:60
FILE "15 Alison.flac" WAVE
    INDEX 01 00:00:00
  TRACK 16 AUDIO
    TITLE "My Three Sons"
    PERFORMER "Elvis Costello & The Imposters"
    ISRC USUM70808442
    REM REPLAYGAIN_TRACK_GAIN -6.54 dB
    REM REPLAYGAIN_TRACK_PEAK 0.998199
    INDEX 00 03:23:59
FILE "16 My Three Sons.flac" WAVE
    INDEX 01 00:00:00
  TRACK 17 AUDIO
    TITLE "I'm In the Mood Again"
    PERFORMER "Elvis Costello"
    SONGWRITER "Elvis Costello"
    ISRC USUMC0300079
    REM REPLAYGAIN_TRACK_GAIN -6.71 dB
    REM REPLAYGAIN_TRACK_PEAK 0.917664
    INDEX 00 03:05:13
FILE "17 I'm In the Mood Again.flac" WAVE
    INDEX 01 00:00:00
  TRACK 18 AUDIO
    TITLE "April 5th"
    PERFORMER "Elvis Costello, Rosanne Cash & Kris Kristofferson"
    SONGWRITER "Elvis Costello/Rosanne Cash/John Leventhal/Kris Kristofferson"
    ISRC USUG11501124
    REM REPLAYGAIN_TRACK_GAIN -8.10 dB
    REM REPLAYGAIN_TRACK_PEAK 0.994659
    INDEX 00 02:34:37
FILE "18 April 5th.flac" WAVE
    INDEX 01 00:00:00
  TRACK 19 AUDIO
    TITLE "I Can't Turn It Off"
    PERFORMER "D.P. Costello"
    SONGWRITER "Elvis Costello"
    ISRC USUG11501125
    REM REPLAYGAIN_TRACK_GAIN -7.24 dB
    REM REPLAYGAIN_TRACK_PEAK 0.994659
    INDEX 00 04:30:45
FILE "19 I Can't Turn It Off.flac" WAVE
    INDEX 01 00:00:00
  TRACK 20 AUDIO
    TITLE "Sketches from 'Unfaithful Music & Disappearing Ink'"
    PERFORMER "Elvis Costello"
    SONGWRITER "Elvis Costello"
    ISRC USUG11501138
    REM REPLAYGAIN_TRACK_GAIN -1.60 dB
    REM REPLAYGAIN_TRACK_PEAK 0.985260
    INDEX 00 03:40:69
FILE "20 Sketches from 'Unfaithful Music & Disappearing Ink'.flac" WAVE
    INDEX 01 00:00:00
Код:
-----------------------
DON'T MODIFY THIS FILE
-----------------------
Performer: auCDtect Task Manager
Copyright (c) 2008, 2009 y-soft. All rights reserved
File: 01 Veronica (Demo).flac
Packed/unpacked size: 19327124/31632092
MD5: C0504812DD3E294964F508E7E75729F7/C69EA78E4AAC57CF253969A30FAA63D9
Analizer: auCDtect: CD records authenticity detector, version 0.8.2
Copyright (c) 2004 Oleg Berngardt. All rights reserved.
Copyright (c) 2004 Alexander Djourik. All rights reserved.
Accuracy: -m0
Conclusion: This track looks like CDDA with probability 100%
Log Check Sum: 46446307897FB80D4DBF07138E9CBF0765492568
--------------------CUT HERE--------------------
-----------------------
DON'T MODIFY THIS FILE
-----------------------
Performer: auCDtect Task Manager
Copyright (c) 2008, 2009 y-soft. All rights reserved
File: 02 In the Darkest Place.flac
Packed/unpacked size: 26473384/45468908
MD5: 243AFFC858C01EA188DB1A363DA9EA37/56E46950D4311B4CC63D69D0DFD5ACB9
Analizer: auCDtect: CD records authenticity detector, version 0.8.2
Copyright (c) 2004 Oleg Berngardt. All rights reserved.
Copyright (c) 2004 Alexander Djourik. All rights reserved.
Accuracy: -m0
Conclusion: This track looks like CDDA with probability 100%
Log Check Sum: 079641A693D64FAEA45C65BCA3CFECF5E35D39A1
--------------------CUT HERE--------------------
-----------------------
DON'T MODIFY THIS FILE
-----------------------
Performer: auCDtect Task Manager
Copyright (c) 2008, 2009 y-soft. All rights reserved
File: 03 I Want to Vanish.flac
Packed/unpacked size: 17637858/34320428
MD5: 844D49308662D5104EEC048FC120FA5B/4D6C0B736FFD5A18B659514B555CBD67
Analizer: auCDtect: CD records authenticity detector, version 0.8.2
Copyright (c) 2004 Oleg Berngardt. All rights reserved.
Copyright (c) 2004 Alexander Djourik. All rights reserved.
Accuracy: -m0
Conclusion: This track looks like CDDA with probability 100%
Log Check Sum: 4B1B1489749ACDEC6D9C8D512481535FD63BDCDE
--------------------CUT HERE--------------------
-----------------------
DON'T MODIFY THIS FILE
-----------------------
Performer: auCDtect Task Manager
Copyright (c) 2008, 2009 y-soft. All rights reserved
File: 05 The Other Side of Summer.flac
Packed/unpacked size: 30308738/41658668
MD5: 471C237E148068FAFC0330A9CB973392/382F8807DB3A84481BB3D8856AAC97F6
Analizer: auCDtect: CD records authenticity detector, version 0.8.2
Copyright (c) 2004 Oleg Berngardt. All rights reserved.
Copyright (c) 2004 Alexander Djourik. All rights reserved.
Accuracy: -m0
Conclusion: This track looks like CDDA with probability 100%
Log Check Sum: AB9F7D4B8538D7666003E2B88C4413961D1FA1A1
--------------------CUT HERE--------------------
-----------------------
DON'T MODIFY THIS FILE
-----------------------
Performer: auCDtect Task Manager
Copyright (c) 2008, 2009 y-soft. All rights reserved
File: 04 My Dark Life.flac
Packed/unpacked size: 36837435/67260188
MD5: B03BE219F5545156D0E52C79A0CFB6A5/6A845CCB5947A1E898EA5308EFB2BA20
Analizer: auCDtect: CD records authenticity detector, version 0.8.2
Copyright (c) 2004 Oleg Berngardt. All rights reserved.
Copyright (c) 2004 Alexander Djourik. All rights reserved.
Accuracy: -m0
Conclusion: This track looks like CDDA with probability 100%
Log Check Sum: A2456DF20FFCB3E5DF2889EA44B57E5FC9D140E0
--------------------CUT HERE--------------------
-----------------------
DON'T MODIFY THIS FILE
-----------------------
Performer: auCDtect Task Manager
Copyright (c) 2008, 2009 y-soft. All rights reserved
File: 06 London's Brilliant Parade.flac
Packed/unpacked size: 30501102/46614332
MD5: E658C0AD4F51BD61D93DF26B49A552EA/30042D2D0D62BF9D5F942228F9F5FD78
Analizer: auCDtect: CD records authenticity detector, version 0.8.2
Copyright (c) 2004 Oleg Berngardt. All rights reserved.
Copyright (c) 2004 Alexander Djourik. All rights reserved.
Accuracy: -m0
Conclusion: This track looks like CDDA with probability 99%
Log Check Sum: BB761DB27B0AB92A7BB2E6E9D97E5993E01F0CBB
--------------------CUT HERE--------------------
-----------------------
DON'T MODIFY THIS FILE
-----------------------
Performer: auCDtect Task Manager
Copyright (c) 2008, 2009 y-soft. All rights reserved
File: 07 Ghost Train.flac
Packed/unpacked size: 18902824/33160892
MD5: C34185037BB10A5EA687FDCF46C86606/436D82EE0D95B7A9FC82DD3260AB9F4C
Analizer: auCDtect: CD records authenticity detector, version 0.8.2
Copyright (c) 2004 Oleg Berngardt. All rights reserved.
Copyright (c) 2004 Alexander Djourik. All rights reserved.
Accuracy: -m0
Conclusion: This track looks like CDDA with probability 100%
Log Check Sum: 92C1C8EF7AC59BBE8F40F7C820F3EDF8C35DD71B
--------------------CUT HERE--------------------
-----------------------
DON'T MODIFY THIS FILE
-----------------------
Performer: auCDtect Task Manager
Copyright (c) 2008, 2009 y-soft. All rights reserved
File: 08 Suit of Lights.flac
Packed/unpacked size: 28103914/43472060
MD5: BAA3DE84C8D0350B7EBDB26B984863A7/60332E0F00EEC2FEEE1EFE8F09D81928
Analizer: auCDtect: CD records authenticity detector, version 0.8.2
Copyright (c) 2004 Oleg Berngardt. All rights reserved.
Copyright (c) 2004 Alexander Djourik. All rights reserved.
Accuracy: -m0
Conclusion: This track looks like CDDA with probability 100%
Log Check Sum: B34A6D710FD1A10A092BFE6AA2912B84CE738250
--------------------CUT HERE--------------------
-----------------------
DON'T MODIFY THIS FILE
-----------------------
Performer: auCDtect Task Manager
Copyright (c) 2008, 2009 y-soft. All rights reserved
File: 09 Jimmie Standing In the Rain.flac
Packed/unpacked size: 24289811/44998508
MD5: 88E20E994A3FE0F7CD95635E2B84AF35/776D00C12D75284FC4D87842DFFF7654
Analizer: auCDtect: CD records authenticity detector, version 0.8.2
Copyright (c) 2004 Oleg Berngardt. All rights reserved.
Copyright (c) 2004 Alexander Djourik. All rights reserved.
Accuracy: -m0
Conclusion: This track looks like CDDA with probability 100%
Log Check Sum: 4AC99A6B1EC98EBAB6ACDBFCBCC4F976DC6E674A
--------------------CUT HERE--------------------
-----------------------
DON'T MODIFY THIS FILE
-----------------------
Performer: auCDtect Task Manager
Copyright (c) 2008, 2009 y-soft. All rights reserved
File: 10 The Birds Will Still Be Singing.flac
Packed/unpacked size: 25143820/46656668
MD5: 349EA0602FE539E08EB99CD5E4A65B88/665FE7F070D9F8C1F3EA761AFEE53118
Analizer: auCDtect: CD records authenticity detector, version 0.8.2
Copyright (c) 2004 Oleg Berngardt. All rights reserved.
Copyright (c) 2004 Alexander Djourik. All rights reserved.
Accuracy: -m0
Conclusion: This track looks like CDDA with probability 100%
Log Check Sum: A9C20E7A3BA8E29E1D246B9EAE5DA7E912C5F92C
--------------------CUT HERE--------------------
-----------------------
DON'T MODIFY THIS FILE
-----------------------
Performer: auCDtect Task Manager
Copyright (c) 2008, 2009 y-soft. All rights reserved
File: 11 Wise Up Ghost.flac
Packed/unpacked size: 47522262/68304476
MD5: F657CCE08B2979F9BA0BD26999EBFDE3/6CC5D0A214DB85DC69A262A35BA651E6
Analizer: auCDtect: CD records authenticity detector, version 0.8.2
Copyright (c) 2004 Oleg Berngardt. All rights reserved.
Copyright (c) 2004 Alexander Djourik. All rights reserved.
Accuracy: -m0
Conclusion: This track looks like CDDA with probability 100%
Log Check Sum: 2DE9D0CBFE32E8BDA089C1AFAA0425C377688D12
--------------------CUT HERE--------------------
-----------------------
DON'T MODIFY THIS FILE
-----------------------
Performer: auCDtect Task Manager
Copyright (c) 2008, 2009 y-soft. All rights reserved
File: 12 Almost Blue.flac
Packed/unpacked size: 16405445/30176204
MD5: A1EDDBEEEC1D8CB3E4DA16CAFEF0BB54/90A84E03BECEBF63E19455B092D6FF7D
Analizer: auCDtect: CD records authenticity detector, version 0.8.2
Copyright (c) 2004 Oleg Berngardt. All rights reserved.
Copyright (c) 2004 Alexander Djourik. All rights reserved.
Accuracy: -m0
Conclusion: This track looks like CDDA with probability 100%
Log Check Sum: 1B4EC6F3E1BADC5045B20CAC17B3048DC43999C8
--------------------CUT HERE--------------------
-----------------------
DON'T MODIFY THIS FILE
-----------------------
Performer: auCDtect Task Manager
Copyright (c) 2008, 2009 y-soft. All rights reserved
File: 13 All the Rage.flac
Packed/unpacked size: 27130958/40856636
MD5: 755A222025ABC83C99AF56C4665FD1B1/7F1D3EA370569632BC1D997B4789C271
Analizer: auCDtect: CD records authenticity detector, version 0.8.2
Copyright (c) 2004 Oleg Berngardt. All rights reserved.
Copyright (c) 2004 Alexander Djourik. All rights reserved.
Accuracy: -m0
Conclusion: This track looks like CDDA with probability 100%
Log Check Sum: 7521816BC16E27CAFBDC6756E83AE30897F43DB4
--------------------CUT HERE--------------------
-----------------------
DON'T MODIFY THIS FILE
-----------------------
Performer: auCDtect Task Manager
Copyright (c) 2008, 2009 y-soft. All rights reserved
File: 14 Couldn't Call It Unexpected No. 4.flac
Packed/unpacked size: 26555349/40094588
MD5: C24309BC1A4F5A97B14222D7CEDC6FF9/D065A7A4218CF91AD6F47E8B73160742
Analizer: auCDtect: CD records authenticity detector, version 0.8.2
Copyright (c) 2004 Oleg Berngardt. All rights reserved.
Copyright (c) 2004 Alexander Djourik. All rights reserved.
Accuracy: -m0
Conclusion: This track looks like CDDA with probability 99%
Log Check Sum: E8846F688671FCD552DFE8A3278A537D8FEC27BE
--------------------CUT HERE--------------------
-----------------------
DON'T MODIFY THIS FILE
-----------------------
Performer: auCDtect Task Manager
Copyright (c) 2008, 2009 y-soft. All rights reserved
File: 16 My Three Sons.flac
Packed/unpacked size: 19563939/32751644
MD5: 4A85F8CCA9DB20C6327414A14F668935/5CA605A95EF082DDF917D8FF8687BD96
Analizer: auCDtect: CD records authenticity detector, version 0.8.2
Copyright (c) 2004 Oleg Berngardt. All rights reserved.
Copyright (c) 2004 Alexander Djourik. All rights reserved.
Accuracy: -m0
Conclusion: This track looks like CDDA with probability 100%
Log Check Sum: E8DEF66B907F41DFECBC59C5A5FFDD9935A040FD
--------------------CUT HERE--------------------
-----------------------
DON'T MODIFY THIS FILE
-----------------------
Performer: auCDtect Task Manager
Copyright (c) 2008, 2009 y-soft. All rights reserved
File: 15 Alison.flac
Packed/unpacked size: 20861098/36035036
MD5: DDC5719F200766F0F96FD42D34D9F0C9/529982C2A6B39EC42558134AEB2FF341
Analizer: auCDtect: CD records authenticity detector, version 0.8.2
Copyright (c) 2004 Oleg Berngardt. All rights reserved.
Copyright (c) 2004 Alexander Djourik. All rights reserved.
Accuracy: -m0
Conclusion: This track looks like CDDA with probability 100%
Log Check Sum: 475529C7A9B2DC50107929F580966C31C0AC4DD2
--------------------CUT HERE--------------------
-----------------------
DON'T MODIFY THIS FILE
-----------------------
Performer: auCDtect Task Manager
Copyright (c) 2008, 2009 y-soft. All rights reserved
File: 17 I'm In the Mood Again.flac
Packed/unpacked size: 13176712/27339692
MD5: BA22420ED9E9FAA95BF47317209A7044/2201BE938F38A5A0B2462AC35D0F3C7A
Analizer: auCDtect: CD records authenticity detector, version 0.8.2
Copyright (c) 2004 Oleg Berngardt. All rights reserved.
Copyright (c) 2004 Alexander Djourik. All rights reserved.
Accuracy: -m0
Conclusion: This track looks like CDDA with probability 100%
Log Check Sum: 7F856837CE3AA8F24C35BCEABE36A61CDE04B297
--------------------CUT HERE--------------------
-----------------------
DON'T MODIFY THIS FILE
-----------------------
Performer: auCDtect Task Manager
Copyright (c) 2008, 2009 y-soft. All rights reserved
File: 18 April 5th.flac
Packed/unpacked size: 25525150/47820908
MD5: 96271969DE4A43699705F7C3E28A348D/8B862CEB0B06A6181E96D03D3BA016E1
Analizer: auCDtect: CD records authenticity detector, version 0.8.2
Copyright (c) 2004 Oleg Berngardt. All rights reserved.
Copyright (c) 2004 Alexander Djourik. All rights reserved.
Accuracy: -m0
Conclusion: This track looks like CDDA with probability 100%
Log Check Sum: 1C774F26CA9E668479177D986490430FD333D21C
--------------------CUT HERE--------------------
-----------------------
DON'T MODIFY THIS FILE
-----------------------
Performer: auCDtect Task Manager
Copyright (c) 2008, 2009 y-soft. All rights reserved
File: 19 I Can't Turn It Off.flac
Packed/unpacked size: 19520114/39057356
MD5: FC736B720A03B9BB069F2F9105DCA3F3/4BEB2129270BB491871B1203164EC813
Analizer: auCDtect: CD records authenticity detector, version 0.8.2
Copyright (c) 2004 Oleg Berngardt. All rights reserved.
Copyright (c) 2004 Alexander Djourik. All rights reserved.
Accuracy: -m0
Conclusion: This track looks like CDDA with probability 100%
Log Check Sum: 7E292CFCCE93205BB9D9D55404C1F55EA6A88212
--------------------CUT HERE--------------------
-----------------------
DON'T MODIFY THIS FILE
-----------------------
Performer: auCDtect Task Manager
Copyright (c) 2008, 2009 y-soft. All rights reserved
File: 20 Sketches from 'Unfaithful Music & Disappearing Ink'.flac
Packed/unpacked size: 16168174/46183916
MD5: FED906D5A77BDB35632F3A6AE19B917A/A2543A901A24C513BA4BEC4007CD1813
Analizer: auCDtect: CD records authenticity detector, version 0.8.2
Copyright (c) 2004 Oleg Berngardt. All rights reserved.
Copyright (c) 2004 Alexander Djourik. All rights reserved.
Accuracy: -m0
Conclusion: This track looks like CDDA with probability 100%
Log Check Sum: 4A058BE990C54391D03D0C5708DC2F362DFC823A
Barcode: 602547523693
Правила, инструкции, FAQ!!!
Торрент  Добавлен [26 мар 2019, 20:59] Скачать торрент Магнет ссылка
Скачать торрент
[ Размер 22.24 КБ / Просмотров 5 ]

Статус
Проверен 
 
Размер  960.22 МБ
Приватный: Нет (DHT включён)
.torrent скачан  0
 


     Отправить личное сообщение
   
Страница 1 из 1
Показать сообщения за:  Поле сортировки  
Начать новую тему Ответить на тему


Сейчас этот форум просматривают: нет зарегистрированных пользователей и гости: 0


Вы не можете начинать темы
Вы не можете отвечать на сообщения
Вы не можете редактировать свои сообщения
Вы не можете удалять свои сообщения
Вы не можете добавлять вложения

Перейти:  
cron