Начать новую тему Ответить на тему
Статистика раздачи
Размер: 735.56 МБ | Добавлен: 26 мар 2019, 20:07 | Скачали: 0
Сидеров: 0  [0 байт/сек]    Личеров: 0  [0 байт/сек]
Пред. тема | След. тема 

Автор
Сообщение

СообщениеДобавлено: 26 мар 2019, 20:07 

Ответить с цитатой 

The Church / Hindsight 1980-1987 (2CD)
Жанр: Alternative Rock, Neo-Psychedelia
Страна-производитель диска: Australia
Год издания диска: 1996
Издатель (лейбл): EMI Music (Australia)
Номер по каталогу: 8382542
Страна: Australia
Аудио кодек: WavPack (*.wv)
Тип рипа: image+.cue
Битрейт аудио: lossless
Продолжительность: 108:49
Источник (релизер): Demonoid
Наличие сканов в содержимом раздачи: да
Треклист:
1-1 The Unguarded Moment
1-2 In A Heartbeat
1-3 Too Fast For You
1-4 Tear It All Away
1-5 Sisters
1-6 Is This Where You Live
1-7 Almost With You
1-8 Fraulein
1-9 You've Got To Go
1-10 The Golden Dawn
1-11 Life Speeds Up
1-12 When You Were Mine
2-1 Electric Lash
2-2 The Night Is Very Soft
2-3 Autumn Soon
2-4 It's No Reason
2-5 Someone Special
2-6 A Month Of Sundays
2-7 Shadow Cabinet
2-8 As You Will
Vocals – Peter Koppes
2-9 Myrrh
2-10 The View
Vocals – Marty Willson-Piper
2-11 Trance Ending
2-12 Tantalized
Код:
Exact Audio Copy V0.99 prebeta 5 from 4. May 2009
EAC extraction logfile from 24. February 2010, 13:00
The Church / Hindsight (Disk 1)
Used drive : HL-DT-STDVDRAM GH20NS15 Adapter: 2 ID: 0
Read mode : Secure
Utilize accurate stream : Yes
Defeat audio cache : Yes
Make use of C2 pointers : No
Read offset correction : 667
Overread into Lead-In and Lead-Out : No
Fill up missing offset samples with silence : Yes
Delete leading and trailing silent blocks : No
Null samples used in CRC calculations : Yes
Used interface : Native Win32 interface for Win NT & 2000
Used output format : Internal WAV Routines
Sample format : 44.100 Hz; 16 Bit; Stereo
TOC of the extracted CD
Track | Start | Length | Start sector | End sector
---------------------------------------------------------
1 | 0:00.00 | 4:15.65 | 0 | 19189
2 | 4:15.65 | 3:51.72 | 19190 | 36586
3 | 8:07.62 | 3:36.30 | 36587 | 52816
4 | 11:44.17 | 4:20.48 | 52817 | 72364
5 | 16:04.65 | 3:42.30 | 72365 | 89044
6 | 19:47.20 | 7:43.67 | 89045 | 123836
7 | 27:31.12 | 4:15.65 | 123837 | 143026
8 | 31:47.02 | 3:07.25 | 143027 | 157076
9 | 34:54.27 | 2:42.20 | 157077 | 169246
10 | 37:36.47 | 4:47.03 | 169247 | 190774
11 | 42:23.50 | 7:03.47 | 190775 | 222546
12 | 49:27.22 | 5:46.50 | 222547 | 248546
Range status and errors
Selected range
Filename C:\musjk\The Church - Hindsight (Disk 1).wav
Peak level 100.0 %
Range quality 100.0 %
Test CRC FBD8EEEB
Copy CRC FBD8EEEB
Copy OK
No errors occurred
AccurateRip summary
Track 1 accurately ripped (confidence 4) [7A11499D]
Track 2 accurately ripped (confidence 4) [EDCF58F6]
Track 3 accurately ripped (confidence 4) [4FF45FF6]
Track 4 accurately ripped (confidence 4) [929015E1]
Track 5 accurately ripped (confidence 4) [1C42F56B]
Track 6 accurately ripped (confidence 4) [D90F23C5]
Track 7 accurately ripped (confidence 4) [F9AF0918]
Track 8 accurately ripped (confidence 4) [7150B133]
Track 9 accurately ripped (confidence 4) [A3525706]
Track 10 accurately ripped (confidence 4) [400F4931]
Track 11 accurately ripped (confidence 4) [8BACA100]
Track 12 accurately ripped (confidence 4) [1BB479A1]
All tracks accurately ripped
End of status report
Exact Audio Copy V0.99 prebeta 5 from 4. May 2009
EAC extraction logfile from 24. February 2010, 13:22
The Church / Hindsight - Disc 2
Used drive : HL-DT-STDVDRAM GH20NS15 Adapter: 2 ID: 0
Read mode : Secure
Utilize accurate stream : Yes
Defeat audio cache : Yes
Make use of C2 pointers : No
Read offset correction : 667
Overread into Lead-In and Lead-Out : No
Fill up missing offset samples with silence : Yes
Delete leading and trailing silent blocks : No
Null samples used in CRC calculations : Yes
Used interface : Native Win32 interface for Win NT & 2000
Used output format : Internal WAV Routines
Sample format : 44.100 Hz; 16 Bit; Stereo
TOC of the extracted CD
Track | Start | Length | Start sector | End sector
---------------------------------------------------------
1 | 0:00.00 | 4:27.42 | 0 | 20066
2 | 4:27.42 | 3:48.73 | 20067 | 37239
3 | 8:16.40 | 4:29.50 | 37240 | 57464
4 | 12:46.15 | 5:16.10 | 57465 | 81174
5 | 18:02.25 | 4:12.60 | 81175 | 100134
6 | 22:15.10 | 4:21.52 | 100135 | 119761
7 | 26:36.62 | 4:18.28 | 119762 | 139139
8 | 30:55.15 | 4:49.32 | 139140 | 160846
9 | 35:44.47 | 4:19.18 | 160847 | 180289
10 | 40:03.65 | 3:43.52 | 180290 | 197066
11 | 43:47.42 | 4:49.18 | 197067 | 218759
12 | 48:36.60 | 4:58.37 | 218760 | 241146
Range status and errors
Selected range
Filename C:\musjk\The Church - Hindsight - Disc 2.wav
Peak level 100.0 %
Range quality 100.0 %
Test CRC 024E7FE6
Copy CRC 024E7FE6
Copy OK
No errors occurred
AccurateRip summary
Track 1 accurately ripped (confidence 4) [83B7749C]
Track 2 accurately ripped (confidence 4) [43A69E9A]
Track 3 accurately ripped (confidence 4) [88463013]
Track 4 accurately ripped (confidence 4) [3052156A]
Track 5 accurately ripped (confidence 4) [7ED1063D]
Track 6 accurately ripped (confidence 4) [7473D2D3]
Track 7 accurately ripped (confidence 4) [C5A1B475]
Track 8 accurately ripped (confidence 4) [35BF63E4]
Track 9 accurately ripped (confidence 4) [CC260A3B]
Track 10 accurately ripped (confidence 4) [DF7B73AE]
Track 11 accurately ripped (confidence 4) [067F1060]
Track 12 accurately ripped (confidence 4) [69E7CF69]
All tracks accurately ripped
End of status report
Код:
PERFORMER "The Church"
TITLE "Hindsight (Disk 1) (1988)"
FILE "Image.wv" WAVE
TRACK 01 AUDIO
TITLE "The Unguarded Moment"
INDEX 01 00:00:00
TRACK 02 AUDIO
TITLE "In a Heartbeat"
INDEX 01 04:15:65
TRACK 03 AUDIO
TITLE "Too Fast for You"
INDEX 01 08:07:62
TRACK 04 AUDIO
TITLE "Tear It All Away"
INDEX 01 11:44:17
TRACK 05 AUDIO
TITLE "Sisters"
INDEX 01 16:04:65
TRACK 06 AUDIO
TITLE "Is This Where You Live"
INDEX 01 19:47:20
TRACK 07 AUDIO
TITLE "Almost With You"
INDEX 01 27:31:12
TRACK 08 AUDIO
TITLE "Fraulein"
INDEX 01 31:47:02
TRACK 09 AUDIO
TITLE "You've Got to Go"
INDEX 01 34:54:27
TRACK 10 AUDIO
TITLE "The Golden Dawn"
INDEX 01 37:36:47
TRACK 11 AUDIO
TITLE "Life Speeds Up"
INDEX 01 42:23:50
TRACK 12 AUDIO
TITLE "When You Were Mine"
INDEX 01 49:27:22
PERFORMER "The Church"
TITLE "Hindsight - Disc 2 (1988)"
FILE "Image.wv" WAVE
TRACK 01 AUDIO
TITLE "Electric Lash"
INDEX 01 00:00:00
TRACK 02 AUDIO
TITLE "The Night Is Very Soft"
INDEX 01 04:27:42
TRACK 03 AUDIO
TITLE "Autumn Soon"
INDEX 01 08:16:40
TRACK 04 AUDIO
TITLE "It's No Reason"
INDEX 01 12:46:15
TRACK 05 AUDIO
TITLE "Someone Special"
INDEX 01 18:02:25
TRACK 06 AUDIO
TITLE "A Month Of Sundays"
INDEX 01 22:15:10
TRACK 07 AUDIO
TITLE "Shadow Cabinet"
INDEX 01 26:36:62
TRACK 08 AUDIO
TITLE "As You Will"
INDEX 01 30:55:15
TRACK 09 AUDIO
TITLE "Myrrh"
INDEX 01 35:44:47
TRACK 10 AUDIO
TITLE "The View"
INDEX 01 40:03:65
TRACK 11 AUDIO
TITLE "Trance Ending"
INDEX 01 43:47:42
TRACK 12 AUDIO
TITLE "Tantalized"
INDEX 01 48:36:60
Код:
d:\>d:\aucdtect -d/-m0 d:\zzz\*.wav
auCDtect: CD records authenticity detector, version 0.8.2
Copyright (c) 2004 Oleg Berngardt. All rights reserved.
Copyright (c) 2004 Alexander Djourik. All rights reserved.
------------------------------------------------------------
Processing file: [01. Electric Lash.wav]
------------------------------------------------------------
This track looks like CDDA with probability 99%
------------------------------------------------------------
Processing file: [01. The Unguarded Moment.wav]
------------------------------------------------------------
This track looks like CDDA with probability 100%
------------------------------------------------------------
Processing file: [02. In a Heartbeat.wav]
------------------------------------------------------------
This track looks like CDDA with probability 99%
------------------------------------------------------------
Processing file: [02. The Night Is Very Soft.wav]
------------------------------------------------------------
This track looks like CDDA with probability 100%
------------------------------------------------------------
Processing file: [03. Autumn Soon.wav]
------------------------------------------------------------
This track looks like CDDA with probability 100%
------------------------------------------------------------
Processing file: [03. Too Fast for You.wav]
------------------------------------------------------------
This track looks like CDDA with probability 100%
------------------------------------------------------------
Processing file: [04. It's No Reason.wav]
------------------------------------------------------------
This track looks like CDDA with probability 100%
------------------------------------------------------------
Processing file: [04. Tear It All Away.wav]
------------------------------------------------------------
This track looks like CDDA with probability 100%
------------------------------------------------------------
Processing file: [05. Sisters.wav]
------------------------------------------------------------
This track looks like CDDA with probability 99%
------------------------------------------------------------
Processing file: [05. Someone Special.wav]
------------------------------------------------------------
This track looks like CDDA with probability 100%
------------------------------------------------------------
Processing file: [06. A Month Of Sundays.wav]
------------------------------------------------------------
This track looks like CDDA with probability 100%
------------------------------------------------------------
Processing file: [06. Is This Where You Live.wav]
------------------------------------------------------------
This track looks like CDDA with probability 100%
------------------------------------------------------------
Processing file: [07. Almost With You.wav]
------------------------------------------------------------
This track looks like CDDA with probability 100%
------------------------------------------------------------
Processing file: [07. Shadow Cabinet.wav]
------------------------------------------------------------
This track looks like CDDA with probability 100%
------------------------------------------------------------
Processing file: [08. As You Will.wav]
------------------------------------------------------------
This track looks like CDDA with probability 99%
------------------------------------------------------------
Processing file: [08. Fraulein.wav]
------------------------------------------------------------
This track looks like CDDA with probability 99%
------------------------------------------------------------
Processing file: [09. Myrrh.wav]
------------------------------------------------------------
This track looks like CDDA with probability 100%
------------------------------------------------------------
Processing file: [09. You've Got to Go.wav]
------------------------------------------------------------
This track looks like CDDA with probability 99%
------------------------------------------------------------
Processing file: [10. The Golden Dawn.wav]
------------------------------------------------------------
This track looks like CDDA with probability 100%
------------------------------------------------------------
Processing file: [10. The View.wav]
------------------------------------------------------------
This track looks like CDDA with probability 100%
------------------------------------------------------------
Processing file: [11. Life Speeds Up.wav]
------------------------------------------------------------
This track looks like CDDA with probability 99%
------------------------------------------------------------
Processing file: [11. Trance Ending.wav]
------------------------------------------------------------
This track looks like CDDA with probability 100%
------------------------------------------------------------
Processing file: [12. Tantalized.wav]
------------------------------------------------------------
This track looks like CDDA with probability 100%
------------------------------------------------------------
Processing file: [12. When You Were Mine.wav]
------------------------------------------------------------
This track looks like CDDA with probability 100%
------------------------------------------------------------
Final Conclusion:
------------------------------------------------------------
These tracks looks like CDDA with probability 100%



* Bass, Vocals, Keyboards – Steve Kilbey
* Drums – Richard Ploog
* Guitar, Vocals – Marty Willson-Piper, Peter Koppes
Правила, инструкции, FAQ!!!
Торрент  Добавлен [26 мар 2019, 20:07] Скачать торрент Магнет ссылка
Скачать торрент
[ Размер 15.71 КБ / Просмотров 0 ]

Статус
Проверен 
 
Размер  735.56 МБ
Приватный: Нет (DHT включён)
.torrent скачан  0
 


     Отправить личное сообщение
   
Страница 1 из 1
Показать сообщения за:  Поле сортировки  
Начать новую тему Ответить на тему


Сейчас этот форум просматривают: нет зарегистрированных пользователей и гости: 0


Вы не можете начинать темы
Вы не можете отвечать на сообщения
Вы не можете редактировать свои сообщения
Вы не можете удалять свои сообщения
Вы не можете добавлять вложения

Перейти:  
cron