Начать новую тему Ответить на тему
Статистика раздачи
Размер: 287.43 МБ | Добавлен: 26 мар 2019, 19:48 | Скачали: 0
Сидеров: 0  [0 байт/сек]    Личеров: 0  [0 байт/сек]
Пред. тема | След. тема 

Автор
Сообщение

СообщениеДобавлено: 26 мар 2019, 19:48 

Ответить с цитатой 

Marty Willson-Piper / Spirit Level
Жанр: Alternative Rock, Neo-Psychedelia
Страна-производитель диска: US
Год издания диска: 1992
Издатель (лейбл): Rykodisc
Номер по каталогу: RCD 10197
Страна: Australia
Аудиокодек: FLAC (*.flac)
Тип рипа: tracks+.cue
Битрейт аудио: lossless
Продолжительность: 49:41
Источник (релизер): waffles.fm
Наличие сканов в содержимом раздачи: нет
Треклист:
1 I Can't Cry 4:04
Bass - Matts Alsberg
Drums, Percussion - Michael Blair
Lead Vocals, Guitar, Bouzouki - Marty Willson-Piper
Organ, Backing Vocals - Martin Rossel
2 Will I Start To Bleed 3:44
Lead Vocals, Acoustic Guitar - Marty Willson-Piper
Organ - Andy Dare Mason
3 Turn Away To The Stars 2:49
Bass - Mats Ronnerstam
Drums, Percussion - Anders Hernestam
Lead Vocals, Guitar - Marty Willson-Piper
Synthesizer, Organ, Backing Vocals - Andy Dare Mason
4 Luscious Ghost 5:05
Bass - Mats Ronnerstam
Drums - Anders Hernestam
Guitar - Andy Dare Mason
Lead Vocals, Guitar - Marty Willson-Piper
Tambourine - Martin Rossel
5 Scandinavian Stare 6:18
Backing Vocals - Ann Carlberger
Lead Vocals, Guitar, Noises [Radio, Atmosphere] - Marty Willson-Piper
Percussion [Brushes] - Anders Hernestam
Piano, Bass, Recorder, Noises [Atmosphere] - Andy Dare Mason
6 Can't Ever Risk An Openess With You 4:01
Lead Vocals, Guitar - Marty Willson-Piper
7 Even Though You Are My Friend 6:01
Bass - Mats Ronnerstam
Drums - Anders Hernestam
Guitar [Slide] - Martin Rossel
Keyboards - Andy Dare Mason
Vocals, Guitar - Marty Willson-Piper
8 Adelle Yvonne 3:54
Bass - Mats Ronnerstam
Drums - Anders Hernestam
Guitar, Organ, Backing Vocals - Andy Dare Mason
Lead Vocals - Marty Willson-Piper
Piano - Rickard Pilath
9 The Saddest House In Stockholm 2:51
Lead Vocals, Guitar - Marty Willson-Piper
10 Kiss You To Death 4:10
Bass - Mats Ronnerstam
Drums - Anders Hernestam
Keyboards - Andy Dare Mason
Keyboards, Backing Vocals - Martin Rossel
Lead Vocals, Guitar - Marty Willson-Piper
11 Melts My Heart 6:42
Drums - Millicent Frastley
Sequenced By [Egyptian Sequencer] - Andy Dare Mason
Vocals, Guitar, Keyboards, Bass - Marty Willson-Piper
Код:
Exact Audio Copy V0.99 prebeta 5 from 4. May 2009
EAC extraction logfile from 19. October 2010, 20:44
Marty Willson-Piper / Spirit level
Used drive  : SONY    DVD RW DW-Q30A   Adapter: 0  ID: 0
Read mode               : Secure
Utilize accurate stream : Yes
Defeat audio cache      : Yes
Make use of C2 pointers : No
Read offset correction                      : 6
Overread into Lead-In and Lead-Out          : No
Fill up missing offset samples with silence : Yes
Delete leading and trailing silent blocks   : No
Null samples used in CRC calculations       : Yes
Used interface                              : Native Win32 interface for Win NT & 2000
Gap handling                                : Appended to previous track
Used output format              : User Defined Encoder
Selected bitrate                : 128 kBit/s
Quality                         : High
Add ID3 tag                     : No
Command line compressor         : C:\Program\FLAC\flac.exe
Additional command line options : -V -8 -T "artist=%a" -T "title=%t" -T "album=%g" -T "date=%y" -T "tracknumber=%n" -T "genre=%m" %s
TOC of the extracted CD
     Track |   Start  |  Length  | Start sector | End sector
    ---------------------------------------------------------
        1  |  0:00.32 |  4:04.00 |        32    |    18331
        2  |  4:04.32 |  3:44.00 |     18332    |    35131
        3  |  7:48.32 |  2:49.00 |     35132    |    47806
        4  | 10:37.32 |  5:05.38 |     47807    |    70719
        5  | 15:42.70 |  6:18.17 |     70720    |    99086
        6  | 22:01.12 |  4:01.53 |     99087    |   117214
        7  | 26:02.65 |  6:01.42 |    117215    |   144331
        8  | 32:04.32 |  3:54.38 |    144332    |   161919
        9  | 35:58.70 |  2:51.00 |    161920    |   174744
       10  | 38:49.70 |  4:10.05 |    174745    |   193499
       11  | 43:00.00 |  6:42.17 |    193500    |   223666
Track  1
     Filename E:\Musik\Rip\Marty Willson-Piper\Marty Willson-Piper - 1992 - Spirit Level [FLAC]\Marty Willson-Piper - 01 - I can't cry.wav
     Pre-gap length  0:00:02.42
     Peak level 100.0 %
     Track quality 100.0 %
     Test CRC E8F8F41F
     Copy CRC E8F8F41F
     Accurately ripped (confidence 8)  [11336B80]
     Copy OK
Track  2
     Filename E:\Musik\Rip\Marty Willson-Piper\Marty Willson-Piper - 1992 - Spirit Level [FLAC]\Marty Willson-Piper - 02 - Will I start to bleed.wav
     Peak level 70.1 %
     Track quality 99.9 %
     Test CRC 70B2AC15
     Copy CRC 70B2AC15
     Accurately ripped (confidence 7)  [94AA511B]
     Copy OK
Track  3
     Filename E:\Musik\Rip\Marty Willson-Piper\Marty Willson-Piper - 1992 - Spirit Level [FLAC]\Marty Willson-Piper - 03 - Turn away to the stars.wav
     Peak level 100.0 %
     Track quality 99.9 %
     Test CRC FDB637A4
     Copy CRC FDB637A4
     Accurately ripped (confidence 7)  [34B0513D]
     Copy OK
Track  4
     Filename E:\Musik\Rip\Marty Willson-Piper\Marty Willson-Piper - 1992 - Spirit Level [FLAC]\Marty Willson-Piper - 04 - Luscious ghost.wav
     Peak level 98.8 %
     Track quality 99.9 %
     Test CRC 97956E0E
     Copy CRC 97956E0E
     Accurately ripped (confidence 7)  [A3798552]
     Copy OK
Track  5
     Filename E:\Musik\Rip\Marty Willson-Piper\Marty Willson-Piper - 1992 - Spirit Level [FLAC]\Marty Willson-Piper - 05 - Scandinavian stare.wav
     Peak level 98.9 %
     Track quality 99.9 %
     Test CRC 4C0E49E7
     Copy CRC 4C0E49E7
     Accurately ripped (confidence 7)  [0844D0B6]
     Copy OK
Track  6
     Filename E:\Musik\Rip\Marty Willson-Piper\Marty Willson-Piper - 1992 - Spirit Level [FLAC]\Marty Willson-Piper - 06 - Can't ever risk an openess with you.wav
     Peak level 100.0 %
     Track quality 100.0 %
     Test CRC A216705D
     Copy CRC A216705D
     Accurately ripped (confidence 7)  [BDABE3C5]
     Copy OK
Track  7
     Filename E:\Musik\Rip\Marty Willson-Piper\Marty Willson-Piper - 1992 - Spirit Level [FLAC]\Marty Willson-Piper - 07 - Even though you are my friend.wav
     Pre-gap length  0:00:00.97
     Peak level 100.0 %
     Track quality 100.0 %
     Test CRC FD94C303
     Copy CRC FD94C303
     Accurately ripped (confidence 7)  [91FDF06D]
     Copy OK
Track  8
     Filename E:\Musik\Rip\Marty Willson-Piper\Marty Willson-Piper - 1992 - Spirit Level [FLAC]\Marty Willson-Piper - 08 - Adelle Yvonne.wav
     Pre-gap length  0:00:01.13
     Peak level 100.0 %
     Track quality 100.0 %
     Test CRC 0887C623
     Copy CRC 0887C623
     Accurately ripped (confidence 7)  [3D7E4C95]
     Copy OK
Track  9
     Filename E:\Musik\Rip\Marty Willson-Piper\Marty Willson-Piper - 1992 - Spirit Level [FLAC]\Marty Willson-Piper - 09 - The saddest house in Stockholm.wav
     Pre-gap length  0:00:00.66
     Peak level 100.0 %
     Track quality 99.9 %
     Test CRC E2F159F0
     Copy CRC E2F159F0
     Accurately ripped (confidence 7)  [CDBEDD15]
     Copy OK
Track 10
     Filename E:\Musik\Rip\Marty Willson-Piper\Marty Willson-Piper - 1992 - Spirit Level [FLAC]\Marty Willson-Piper - 10 - Kiss you to death.wav
     Peak level 100.0 %
     Track quality 99.9 %
     Test CRC 214A035D
     Copy CRC 214A035D
     Accurately ripped (confidence 8)  [F8CEDDD6]
     Copy OK
Track 11
     Filename E:\Musik\Rip\Marty Willson-Piper\Marty Willson-Piper - 1992 - Spirit Level [FLAC]\Marty Willson-Piper - 11 - Melts my heart.wav
     Peak level 100.0 %
     Track quality 100.0 %
     Test CRC 99E6A02F
     Copy CRC 99E6A02F
     Accurately ripped (confidence 8)  [E8F81965]
     Copy OK
All tracks accurately ripped
No errors occurred
End of status report
Код:
REM GENRE Pop/rock
REM DATE 1992
REM DISCID 8A0BA60B
REM COMMENT "ExactAudioCopy v0.99pb5"
FILE "Marty Willson-Piper - 01 - I can't cry.wav" WAVE
  TRACK 01 AUDIO
    PREGAP 00:00:32
    INDEX 01 00:00:00
FILE "Marty Willson-Piper - 02 - Will I start to bleed.wav" WAVE
  TRACK 02 AUDIO
    INDEX 01 00:00:00
FILE "Marty Willson-Piper - 03 - Turn away to the stars.wav" WAVE
  TRACK 03 AUDIO
    INDEX 01 00:00:00
FILE "Marty Willson-Piper - 04 - Luscious ghost.wav" WAVE
  TRACK 04 AUDIO
    INDEX 01 00:00:00
FILE "Marty Willson-Piper - 05 - Scandinavian stare.wav" WAVE
  TRACK 05 AUDIO
    INDEX 01 00:00:00
FILE "Marty Willson-Piper - 06 - Can't ever risk an openess with you.wav" WAVE
  TRACK 06 AUDIO
    INDEX 01 00:00:00
  TRACK 07 AUDIO
    INDEX 00 04:00:55
FILE "Marty Willson-Piper - 07 - Even though you are my friend.wav" WAVE
    INDEX 01 00:00:00
  TRACK 08 AUDIO
    INDEX 00 06:00:32
FILE "Marty Willson-Piper - 08 - Adelle Yvonne.wav" WAVE
    INDEX 01 00:00:00
  TRACK 09 AUDIO
    INDEX 00 03:53:63
FILE "Marty Willson-Piper - 09 - The saddest house in Stockholm.wav" WAVE
    INDEX 01 00:00:00
FILE "Marty Willson-Piper - 10 - Kiss you to death.wav" WAVE
  TRACK 10 AUDIO
    INDEX 01 00:00:00
FILE "Marty Willson-Piper - 11 - Melts my heart.wav" WAVE
  TRACK 11 AUDIO
    INDEX 01 00:00:00
Код:
d:\>d:\aucdtect -d/-m0 d:\zzz\*.wav
auCDtect: CD records authenticity detector, version 0.8.2
Copyright (c) 2004 Oleg Berngardt. All rights reserved.
Copyright (c) 2004 Alexander Djourik. All rights reserved.
------------------------------------------------------------
Processing file: [01. I can't cry.wav]
------------------------------------------------------------
This track looks like CDDA with probability 100%
------------------------------------------------------------
Processing file: [02. Will I start to bleed.wav]
------------------------------------------------------------
This track looks like CDDA with probability 100%
------------------------------------------------------------
Processing file: [03. Turn away to the stars.wav]
------------------------------------------------------------
This track looks like CDDA with probability 100%
------------------------------------------------------------
Processing file: [04. Luscious ghost.wav]
------------------------------------------------------------
This track looks like CDDA with probability 99%
------------------------------------------------------------
Processing file: [05. Scandinavian stare.wav]
------------------------------------------------------------
This track looks like CDDA with probability 99%
------------------------------------------------------------
Processing file: [06. Can't ever risk an openess with you.wav]
------------------------------------------------------------
This track looks like CDDA with probability 100%
------------------------------------------------------------
Processing file: [07. Even though you are my friend.wav]
------------------------------------------------------------
This track looks like CDDA with probability 100%
------------------------------------------------------------
Processing file: [08. Adelle Yvonne.wav]
------------------------------------------------------------
This track looks like CDDA with probability 86%
------------------------------------------------------------
Processing file: [09. The saddest house in Stockholm.wav]
------------------------------------------------------------
This track looks like CDDA with probability 100%
------------------------------------------------------------
Processing file: [10. Kiss you to death.wav]
------------------------------------------------------------
This track looks like CDDA with probability 99%
------------------------------------------------------------
Processing file: [11. Melts my heart.wav]
------------------------------------------------------------
This track looks like CDDA with probability 100%
------------------------------------------------------------
Final Conclusion:
------------------------------------------------------------
These tracks looks like CDDA with probability 100%
Доп. информация:
Label:
Rykodisc
Catalog#:
RCD 10197
Format:
CD, Album
Country:
US
Released:
1992
Producer, Lyrics By, Music By - Marty Willson-Piper
Producer, Recorded By, Mixed By - Andy Dare Mason
Правила, инструкции, FAQ!!!
Торрент  Добавлен [26 мар 2019, 19:48] Скачать торрент Магнет ссылка
Скачать торрент
[ Размер 12.88 КБ / Просмотров 5 ]

Статус
Проверен 
 
Размер  287.43 МБ
Приватный: Нет (DHT включён)
.torrent скачан  0
 


     Отправить личное сообщение
   
Страница 1 из 1
Показать сообщения за:  Поле сортировки  
Начать новую тему Ответить на тему


Сейчас этот форум просматривают: нет зарегистрированных пользователей и гости: 0


Вы не можете начинать темы
Вы не можете отвечать на сообщения
Вы не можете редактировать свои сообщения
Вы не можете удалять свои сообщения
Вы не можете добавлять вложения

Перейти:  
cron