Начать новую тему Ответить на тему
Статистика раздачи
Размер: 318.35 МБ | Добавлен: 26 мар 2019, 19:48 | Скачали: 0
Сидеров: 0  [0 байт/сек]    Личеров: 0  [0 байт/сек]
Пред. тема | След. тема 

Автор
Сообщение

СообщениеДобавлено: 26 мар 2019, 19:48 

Ответить с цитатой 

Marty Willson-Piper / Nightjar
Жанр: Alternative Rock, Neo-Psychedelia
Страна-производитель диска: US
Год издания диска: 2008
Издатель (лейбл): Heyday Records
Номер по каталогу: HEY090-2
Страна: Australia
Аудиокодек: FLAC (*.flac)
Тип рипа: tracks+.cue
Битрейт аудио: lossless
Продолжительность: 51:55
Источник (релизер): waffles.fm
Наличие сканов в содержимом раздачи: нет
Треклист:
1 No One There 5:37
Acoustic Guitar [Takamine 12 String], Guitar [Rickenbacker 6 String, Gibson Les Paul], Bass [Hofner Senator] - MWP
Backing Vocals - Dare Mason , Tiare Helberg
Drums [Pearl] - Nick McLeod
Trumpet [Rotary A Change] - Tony King
2 More Is Less 4:47
Acoustic Guitar [Takamine 6 String], Bass [Hofner Senator] - MWP
Cello - Catrina Davies
Violin - Allen Samuel
3 Lullaby For The Lonely 4:13
Acoustic Guitar [Takamine 12 String], Drums [Pearl], Bass [Hofner Senator], Arranged By [Strings] - MWP
Arranged By [Strings] - Dare
Backing Vocals - Tiare Helberg
Cello - Catrina Davies
Performer [Bread St Rolls] - Nick McLeod
Piano - Mike Boyd
Recorded By [Piano] - Jeremy Boyd
Trumpet [Rotary A Change] - Tony King
Violin - Allen Samuel
4 The Sniper 6:16
Backing Vocals - Tiare Helberg
Drums [Yamaha] - Mark Wilkin
Guitar [Fender Strat], Bass [Hofner Senator, Fender 6 String] - MWP
Piano, Strings, Backing Vocals - Dare Mason
Trumpet [Rotary A Change], Trombone [Conn] - Tony King
5 Feed Your Mind 5:20
Acoustic Guitar [Takamine 12 String], Bass [Hofner Senator], Bouzouki [Eston Bazouki] - MWP
Backing Vocals - Tiare Helberg
Drums [Pearl] - Nick McLeod
Organ, Bells [Sleighbells], Backing Vocals - Dare Mason
Piano - Mike Boyd
Recorded By [Piano] - Jeremy Boyd
6 High Down Below 3:27
Acoustic Guitar [Takamine 12 String], Guitar [Fender Strat], Bouzouki [Eston Bazouki], Bass [Hofner Senator] - MWP
Backing Vocals - Dare Mason
Drums [Pearl] - Nick McLeod
7 I Must Have Fallen 7:17
Acoustic Guitar [Takamine 12 String], Bass [Hofner Senator], Drums [Pearl], Arranged By [Strings] - MWP
Arranged By [Strings] - Dare
Backing Vocals - Tiare Helberg
Cello - Catrina Davies
Piano - John Bickersteth
Violin - Allen Samuel
8 The Love You Never Had 4:22
Acoustic Guitar [Takamine 12 String], Bass [Hofner Senator] - MWP
Steel Guitar [Pedal], Recorded By [Pedal Steel Guitar] - Graham Lee
Vocals - Tiare Helberg
9 Song For Victor Jara 5:34
Acoustic Guitar [Takamine 12 String], Bass [Hofner Senator] - MWP
Backing Vocals, Whistle [Bamboo] - Julie Elwin
10 A Game For Losers 5:00
Accordion [Delica Piano Accordian], Backing Vocals - Julie Elwin
Acoustic Guitar [Takamine 12 String], Bass [Hofner Senator] - MWP
Backing Vocals, Arranged By [Backing Vocals] - Dare Mason
Drums [Pearl] - Nick McLeod
Trumpet [Rotary A Change], Trombone [Conn] - Tony King
Код:
Exact Audio Copy V0.99 prebeta 5 from 4. May 2009
EAC extraction logfile from 19. October 2010, 21:54
Marty Willson-Piper / Nightjar
Used drive  : SONY    DVD RW DW-Q30A   Adapter: 0  ID: 0
Read mode               : Secure
Utilize accurate stream : Yes
Defeat audio cache      : Yes
Make use of C2 pointers : No
Read offset correction                      : 6
Overread into Lead-In and Lead-Out          : No
Fill up missing offset samples with silence : Yes
Delete leading and trailing silent blocks   : No
Null samples used in CRC calculations       : Yes
Used interface                              : Native Win32 interface for Win NT & 2000
Gap handling                                : Appended to previous track
Used output format              : User Defined Encoder
Selected bitrate                : 128 kBit/s
Quality                         : High
Add ID3 tag                     : No
Command line compressor         : C:\Program\FLAC\flac.exe
Additional command line options : -V -8 -T "artist=%a" -T "title=%t" -T "album=%g" -T "date=%y" -T "tracknumber=%n" -T "genre=%m" %s
TOC of the extracted CD
     Track |   Start  |  Length  | Start sector | End sector
    ---------------------------------------------------------
        1  |  0:00.00 |  5:37.26 |         0    |    25300
        2  |  5:37.26 |  4:46.65 |     25301    |    46815
        3  | 10:24.16 |  4:13.10 |     46816    |    65800
        4  | 14:37.26 |  6:16.41 |     65801    |    94041
        5  | 20:53.67 |  5:20.23 |     94042    |   118064
        6  | 26:14.15 |  3:27.35 |    118065    |   133624
        7  | 29:41.50 |  7:17.24 |    133625    |   166423
        8  | 36:58.74 |  4:22.13 |    166424    |   186086
        9  | 41:21.12 |  5:34.43 |    186087    |   211179
       10  | 46:55.55 |  4:59.56 |    211180    |   233660
Track  1
     Filename E:\Musik\Rip\Marty Willson-Piper\Marty Willson-Piper - 2008 - Nightjar [FLAC]\Marty Willson-Piper - 01 - No one there.wav
     Pre-gap length  0:00:02.00
     Peak level 98.8 %
     Track quality 99.9 %
     Test CRC E2A58562
     Copy CRC E2A58562
     Track not present in AccurateRip database
     Copy OK
Track  2
     Filename E:\Musik\Rip\Marty Willson-Piper\Marty Willson-Piper - 2008 - Nightjar [FLAC]\Marty Willson-Piper - 02 - More is Less.wav
     Peak level 63.0 %
     Track quality 99.9 %
     Test CRC B1CFEC6C
     Copy CRC B1CFEC6C
     Track not present in AccurateRip database
     Copy OK
Track  3
     Filename E:\Musik\Rip\Marty Willson-Piper\Marty Willson-Piper - 2008 - Nightjar [FLAC]\Marty Willson-Piper - 03 - Lullaby for the Lonely.wav
     Peak level 89.1 %
     Track quality 100.0 %
     Test CRC 87158676
     Copy CRC 87158676
     Track not present in AccurateRip database
     Copy OK
Track  4
     Filename E:\Musik\Rip\Marty Willson-Piper\Marty Willson-Piper - 2008 - Nightjar [FLAC]\Marty Willson-Piper - 04 - The Sniper.wav
     Peak level 98.8 %
     Track quality 99.9 %
     Test CRC 905D35B3
     Copy CRC 905D35B3
     Track not present in AccurateRip database
     Copy OK
Track  5
     Filename E:\Musik\Rip\Marty Willson-Piper\Marty Willson-Piper - 2008 - Nightjar [FLAC]\Marty Willson-Piper - 05 - Feed your Mind.wav
     Peak level 94.3 %
     Track quality 100.0 %
     Test CRC 8BB843BF
     Copy CRC 8BB843BF
     Track not present in AccurateRip database
     Copy OK
Track  6
     Filename E:\Musik\Rip\Marty Willson-Piper\Marty Willson-Piper - 2008 - Nightjar [FLAC]\Marty Willson-Piper - 06 - High down below.wav
     Peak level 98.8 %
     Track quality 100.0 %
     Test CRC 22763C63
     Copy CRC 22763C63
     Track not present in AccurateRip database
     Copy OK
Track  7
     Filename E:\Musik\Rip\Marty Willson-Piper\Marty Willson-Piper - 2008 - Nightjar [FLAC]\Marty Willson-Piper - 07 - I must have Fallen.wav
     Peak level 98.8 %
     Track quality 99.9 %
     Test CRC 679688FD
     Copy CRC 679688FD
     Track not present in AccurateRip database
     Copy OK
Track  8
     Filename E:\Musik\Rip\Marty Willson-Piper\Marty Willson-Piper - 2008 - Nightjar [FLAC]\Marty Willson-Piper - 08 - The love you never had.wav
     Peak level 98.8 %
     Track quality 100.0 %
     Test CRC 06F05237
     Copy CRC 06F05237
     Track not present in AccurateRip database
     Copy OK
Track  9
     Filename E:\Musik\Rip\Marty Willson-Piper\Marty Willson-Piper - 2008 - Nightjar [FLAC]\Marty Willson-Piper - 09 - Song for Victor Jara.wav
     Peak level 98.8 %
     Track quality 100.0 %
     Test CRC B4C04731
     Copy CRC B4C04731
     Track not present in AccurateRip database
     Copy OK
Track 10
     Filename E:\Musik\Rip\Marty Willson-Piper\Marty Willson-Piper - 2008 - Nightjar [FLAC]\Marty Willson-Piper - 10 - A game for losers.wav
     Peak level 98.8 %
     Track quality 100.0 %
     Test CRC B1BD35F3
     Copy CRC B1BD35F3
     Track not present in AccurateRip database
     Copy OK
None of the tracks are present in the AccurateRip database
No errors occurred
End of status report
Код:
REM GENRE "Alt. Rock"
REM DATE 2008
REM DISCID 930C2B0A
REM COMMENT "ExactAudioCopy v0.99pb5"
FILE "Marty Willson-Piper - 01 - No one there.wav" WAVE
  TRACK 01 AUDIO
    INDEX 01 00:00:00
FILE "Marty Willson-Piper - 02 - More is Less.wav" WAVE
  TRACK 02 AUDIO
    INDEX 01 00:00:00
FILE "Marty Willson-Piper - 03 - Lullaby for the Lonely.wav" WAVE
  TRACK 03 AUDIO
    INDEX 01 00:00:00
FILE "Marty Willson-Piper - 04 - The Sniper.wav" WAVE
  TRACK 04 AUDIO
    INDEX 01 00:00:00
FILE "Marty Willson-Piper - 05 - Feed your Mind.wav" WAVE
  TRACK 05 AUDIO
    INDEX 01 00:00:00
FILE "Marty Willson-Piper - 06 - High down below.wav" WAVE
  TRACK 06 AUDIO
    INDEX 01 00:00:00
FILE "Marty Willson-Piper - 07 - I must have Fallen.wav" WAVE
  TRACK 07 AUDIO
    INDEX 01 00:00:00
FILE "Marty Willson-Piper - 08 - The love you never had.wav" WAVE
  TRACK 08 AUDIO
    INDEX 01 00:00:00
FILE "Marty Willson-Piper - 09 - Song for Victor Jara.wav" WAVE
  TRACK 09 AUDIO
    INDEX 01 00:00:00
FILE "Marty Willson-Piper - 10 - A game for losers.wav" WAVE
  TRACK 10 AUDIO
    INDEX 01 00:00:00
Код:
d:\>d:\aucdtect -d/-m0 d:\zzz\*.wav
auCDtect: CD records authenticity detector, version 0.8.2
Copyright (c) 2004 Oleg Berngardt. All rights reserved.
Copyright (c) 2004 Alexander Djourik. All rights reserved.
------------------------------------------------------------
Processing file: [01. No one there.wav]
------------------------------------------------------------
This track looks like CDDA with probability 100%
------------------------------------------------------------
Processing file: [02. More is Less.wav]
------------------------------------------------------------
This track looks like CDDA with probability 100%
------------------------------------------------------------
Processing file: [03. Lullaby for the Lonely.wav]
------------------------------------------------------------
This track looks like CDDA with probability 100%
------------------------------------------------------------
Processing file: [04. The Sniper.wav]
------------------------------------------------------------
This track looks like CDDA with probability 100%
------------------------------------------------------------
Processing file: [05. Feed your Mind.wav]
------------------------------------------------------------
This track looks like CDDA with probability 100%
------------------------------------------------------------
Processing file: [06. High down below.wav]
------------------------------------------------------------
This track looks like CDDA with probability 100%
------------------------------------------------------------
Processing file: [07. I must have Fallen.wav]
------------------------------------------------------------
This track looks like CDDA with probability 100%
------------------------------------------------------------
Processing file: [08. The love you never had.wav]
------------------------------------------------------------
This track looks like CDDA with probability 100%
------------------------------------------------------------
Processing file: [09. Song for Victor Jara.wav]
------------------------------------------------------------
This track looks like CDDA with probability 100%
------------------------------------------------------------
Processing file: [10. A game for losers.wav]
------------------------------------------------------------
This track looks like CDDA with probability 100%
------------------------------------------------------------
Final Conclusion:
------------------------------------------------------------
These tracks looks like CDDA with probability 100%
Доп. информация:
Label:
Heyday Records (2)
Catalog#:
HEY090-2
Format:
CD, Album
Country:
US
Released:
2008
Recorded and mixed at the VIP Lounge, Penzance, England.
Mastered in NYC, NY USA.
Additional Audio Levelling at Benchmark Mastering, Sydney, Australia.
Engineer [Additional Audio Levelling] - Reece Tunbridge
Lead Vocals, Music By, Lyrics By - MWP
Mastered By - Dan Grigsby
Producer - Dare Mason
Recorded By, Mixed By - Dare Mason
Правила, инструкции, FAQ!!!
Торрент  Добавлен [26 мар 2019, 19:48] Скачать торрент Магнет ссылка
Скачать торрент
[ Размер 14 КБ / Просмотров 0 ]

Статус
Проверен 
 
Размер  318.35 МБ
Приватный: Нет (DHT включён)
.torrent скачан  0
 


     Отправить личное сообщение
   
Страница 1 из 1
Показать сообщения за:  Поле сортировки  
Начать новую тему Ответить на тему


Сейчас этот форум просматривают: нет зарегистрированных пользователей и гости: 0


Вы не можете начинать темы
Вы не можете отвечать на сообщения
Вы не можете редактировать свои сообщения
Вы не можете удалять свои сообщения
Вы не можете добавлять вложения

Перейти:  
cron