Начать новую тему Ответить на тему
Статистика раздачи
Размер: 437.58 МБ | Добавлен: 26 мар 2019, 19:49 | Скачали: 0
Сидеров: 1  [0 байт/сек]    Личеров: 0  [0 байт/сек]
Пред. тема | След. тема 

Автор
Сообщение

СообщениеДобавлено: 26 мар 2019, 19:49 

Ответить с цитатой 

Marty Willson-Piper / Art Attack
Жанр: Alternative Rock, Neo-Psychedelia, Dream Pop
Страна-производитель диска: US
Год издания диска: 1988
Издатель (лейбл): Rykodisc
Номер по каталогу: RCD 20042
Страна: Australia
Аудиокодек: FLAC (*.flac)
Тип рипа: tracks+.cue
Битрейт аудио: lossless
Продолжительность: 73:34
Источник (релизер): waffles.fm
Наличие сканов в содержимом раздачи: нет
Треклист:
1 O' Stockholm 1:10
2 Water 3:27
Vocals, Written-By - Ann Carlberger
3 She's King 4:02
Percussion - Barton Price
4 Too Round To Be Square 4:26
5 You Whisper 3:25
6 Fear 0:48
7 Evil Queen Of England 4:54
Double Bass - David Leone
8 On The Tip Of My Tongue 3:07
9 Listen / Space 6:21
10 Frightened Just Because Of You 3:18
Guitar [Six String] - Andy Mason
Guitar [Slide], Recorded By - Martin Rossel
11 White Spots On My Jupiter Finger Jupiter Blue On My White Shirt 1:11
12 Word 8:42
Recorded By - Dave Dale
13 Ah Stockholm 1:15
14 Winter Splinter Bay 5:48
Bass - Andy Mason
15 The Lantern 4:33
Backing Vocals - Ann Carlberger
16 I Know I Won't 3:53
17 Night Is Over 3:20
18 Velvet Fuselage 4:01
19 How Come They Don't Touch The Ground 5:45
Код:
Exact Audio Copy V0.99 prebeta 5 from 4. May 2009
EAC extraction logfile from 19. October 2010, 18:30
Marty Willson-Piper / Art Attack
Used drive  : SONY    DVD RW DW-Q30A   Adapter: 0  ID: 0
Read mode               : Secure
Utilize accurate stream : Yes
Defeat audio cache      : Yes
Make use of C2 pointers : No
Read offset correction                      : 6
Overread into Lead-In and Lead-Out          : No
Fill up missing offset samples with silence : Yes
Delete leading and trailing silent blocks   : No
Null samples used in CRC calculations       : Yes
Used interface                              : Native Win32 interface for Win NT & 2000
Gap handling                                : Appended to previous track
Used output format              : User Defined Encoder
Selected bitrate                : 128 kBit/s
Quality                         : High
Add ID3 tag                     : No
Command line compressor         : C:\Program\FLAC\flac.exe
Additional command line options : -V -8 -T "artist=%a" -T "title=%t" -T "album=%g" -T "date=%y" -T "tracknumber=%n" -T "genre=%m" %s
TOC of the extracted CD
     Track |   Start  |  Length  | Start sector | End sector
    ---------------------------------------------------------
        1  |  0:00.00 |  1:10.62 |         0    |     5311
        2  |  1:10.62 |  3:27.03 |      5312    |    20839
        3  |  4:37.65 |  4:02.12 |     20840    |    39001
        4  |  8:40.02 |  4:26.18 |     39002    |    58969
        5  | 13:06.20 |  3:25.47 |     58970    |    74391
        6  | 16:31.67 |  0:48.43 |     74392    |    78034
        7  | 17:20.35 |  4:54.40 |     78035    |   100124
        8  | 22:15.00 |  3:07.22 |    100125    |   114171
        9  | 25:22.22 |  6:21.30 |    114172    |   142776
       10  | 31:43.52 |  3:18.43 |    142777    |   157669
       11  | 35:02.20 |  1:11.37 |    157670    |   163031
       12  | 36:13.57 |  8:42.38 |    163032    |   202219
       13  | 44:56.20 |  1:15.55 |    202220    |   207899
       14  | 46:12.00 |  5:48.00 |    207900    |   233999
       15  | 52:00.00 |  4:33.00 |    234000    |   254474
       16  | 56:33.00 |  3:53.50 |    254475    |   271999
       17  | 60:26.50 |  3:20.62 |    272000    |   287061
       18  | 63:47.37 |  4:01.38 |    287062    |   305174
       19  | 67:49.00 |  5:45.55 |    305175    |   331104
Track  1
     Filename E:\Musik\Rip\Marty Willson-Piper\Marty Willson-Piper - 1988 - Art Attack [FLAC]\Marty Willson-Piper - 01 - O' Stockholm.wav
     Pre-gap length  0:00:02.00
     Peak level 63.1 %
     Track quality 100.0 %
     Test CRC 468B8BA7
     Copy CRC 468B8BA7
     Accurately ripped (confidence 5)  [ADF14DFD]
     Copy OK
Track  2
     Filename E:\Musik\Rip\Marty Willson-Piper\Marty Willson-Piper - 1988 - Art Attack [FLAC]\Marty Willson-Piper - 02 - Water.wav
     Pre-gap length  0:00:00.33
     Peak level 63.4 %
     Track quality 100.0 %
     Test CRC 312769CC
     Copy CRC 312769CC
     Accurately ripped (confidence 5)  [E14A7827]
     Copy OK
Track  3
     Filename E:\Musik\Rip\Marty Willson-Piper\Marty Willson-Piper - 1988 - Art Attack [FLAC]\Marty Willson-Piper - 03 - She's King.wav
     Pre-gap length  0:00:00.33
     Peak level 82.9 %
     Track quality 100.0 %
     Test CRC 385D6DBF
     Copy CRC 385D6DBF
     Accurately ripped (confidence 5)  [DC36FBAD]
     Copy OK
Track  4
     Filename E:\Musik\Rip\Marty Willson-Piper\Marty Willson-Piper - 1988 - Art Attack [FLAC]\Marty Willson-Piper - 04 - Too round to be Square.wav
     Pre-gap length  0:00:02.02
     Peak level 64.6 %
     Track quality 100.0 %
     Test CRC 33370678
     Copy CRC 33370678
     Accurately ripped (confidence 5)  [AB1066AD]
     Copy OK
Track  5
     Filename E:\Musik\Rip\Marty Willson-Piper\Marty Willson-Piper - 1988 - Art Attack [FLAC]\Marty Willson-Piper - 05 - You whisper.wav
     Pre-gap length  0:00:02.26
     Peak level 68.9 %
     Track quality 100.0 %
     Test CRC 830F6BB4
     Copy CRC 830F6BB4
     Accurately ripped (confidence 5)  [10BD590F]
     Copy OK
Track  6
     Filename E:\Musik\Rip\Marty Willson-Piper\Marty Willson-Piper - 1988 - Art Attack [FLAC]\Marty Willson-Piper - 06 - Fear.wav
     Pre-gap length  0:00:00.33
     Peak level 51.5 %
     Track quality 100.0 %
     Test CRC 883EB986
     Copy CRC 883EB986
     Accurately ripped (confidence 5)  [38A3EF1A]
     Copy OK
Track  7
     Filename E:\Musik\Rip\Marty Willson-Piper\Marty Willson-Piper - 1988 - Art Attack [FLAC]\Marty Willson-Piper - 07 - Evil Queen of England.wav
     Pre-gap length  0:00:00.33
     Peak level 62.9 %
     Track quality 99.9 %
     Test CRC 56E7E96B
     Copy CRC 56E7E96B
     Accurately ripped (confidence 5)  [4570F67C]
     Copy OK
Track  8
     Filename E:\Musik\Rip\Marty Willson-Piper\Marty Willson-Piper - 1988 - Art Attack [FLAC]\Marty Willson-Piper - 08 - On the tip of my tounge.wav
     Pre-gap length  0:00:01.50
     Peak level 62.7 %
     Track quality 99.9 %
     Test CRC 3A7A2298
     Copy CRC 3A7A2298
     Accurately ripped (confidence 5)  [77E24984]
     Copy OK
Track  9
     Filename E:\Musik\Rip\Marty Willson-Piper\Marty Willson-Piper - 1988 - Art Attack [FLAC]\Marty Willson-Piper - 09 - Listen,Space.wav
     Pre-gap length  0:00:02.29
     Peak level 70.7 %
     Track quality 100.0 %
     Test CRC 1EDA3CE6
     Copy CRC 1EDA3CE6
     Accurately ripped (confidence 5)  [4EDBFFFB]
     Copy OK
Track 10
     Filename E:\Musik\Rip\Marty Willson-Piper\Marty Willson-Piper - 1988 - Art Attack [FLAC]\Marty Willson-Piper - 10 - Frightened just because of you.wav
     Pre-gap length  0:00:00.33
     Peak level 71.6 %
     Track quality 99.9 %
     Test CRC BD1B2E33
     Copy CRC BD1B2E33
     Accurately ripped (confidence 5)  [B759C6C0]
     Copy OK
Track 11
     Filename E:\Musik\Rip\Marty Willson-Piper\Marty Willson-Piper - 1988 - Art Attack [FLAC]\Marty Willson-Piper - 11 - White spots on my Jupiter finger, Jupiter blue on my white shirt.wav
     Pre-gap length  0:00:01.77
     Peak level 59.0 %
     Track quality 100.0 %
     Test CRC FD2CFE92
     Copy CRC FD2CFE92
     Accurately ripped (confidence 5)  [CF719185]
     Copy OK
Track 12
     Filename E:\Musik\Rip\Marty Willson-Piper\Marty Willson-Piper - 1988 - Art Attack [FLAC]\Marty Willson-Piper - 12 - Word.wav
     Pre-gap length  0:00:00.33
     Peak level 95.1 %
     Track quality 100.0 %
     Test CRC D8AB0F88
     Copy CRC D8AB0F88
     Accurately ripped (confidence 5)  [1BACAC7D]
     Copy OK
Track 13
     Filename E:\Musik\Rip\Marty Willson-Piper\Marty Willson-Piper - 1988 - Art Attack [FLAC]\Marty Willson-Piper - 13 - Еh Stockholm.wav
     Pre-gap length  0:00:00.33
     Peak level 65.6 %
     Track quality 99.8 %
     Test CRC AF6829BC
     Copy CRC AF6829BC
     Accurately ripped (confidence 5)  [7A76B56E]
     Copy OK
Track 14
     Filename E:\Musik\Rip\Marty Willson-Piper\Marty Willson-Piper - 1988 - Art Attack [FLAC]\Marty Willson-Piper - 14 - Winter splinter bay.wav
     Pre-gap length  0:00:01.93
     Peak level 71.6 %
     Track quality 99.9 %
     Test CRC BB7E4515
     Copy CRC BB7E4515
     Accurately ripped (confidence 4)  [911AD737]
     Copy OK
Track 15
     Filename E:\Musik\Rip\Marty Willson-Piper\Marty Willson-Piper - 1988 - Art Attack [FLAC]\Marty Willson-Piper - 15 - The Lantern.wav
     Pre-gap length  0:00:02.00
     Peak level 69.1 %
     Track quality 100.0 %
     Test CRC 6DBCCA72
     Copy CRC 6DBCCA72
     Accurately ripped (confidence 4)  [A4A58D9C]
     Copy OK
Track 16
     Filename E:\Musik\Rip\Marty Willson-Piper\Marty Willson-Piper - 1988 - Art Attack [FLAC]\Marty Willson-Piper - 16 - I know I won't.wav
     Pre-gap length  0:00:01.50
     Peak level 87.8 %
     Track quality 100.0 %
     Test CRC 4302CB29
     Copy CRC 4302CB29
     Accurately ripped (confidence 4)  [F67A2143]
     Copy OK
Track 17
     Filename E:\Musik\Rip\Marty Willson-Piper\Marty Willson-Piper - 1988 - Art Attack [FLAC]\Marty Willson-Piper - 17 - Night is over.wav
     Pre-gap length  0:00:01.80
     Peak level 80.0 %
     Track quality 100.0 %
     Test CRC 826EC988
     Copy CRC 826EC988
     Accurately ripped (confidence 4)  [3936FD16]
     Copy OK
Track 18
     Filename E:\Musik\Rip\Marty Willson-Piper\Marty Willson-Piper - 1988 - Art Attack [FLAC]\Marty Willson-Piper - 18 - Velvet fuselage.wav
     Pre-gap length  0:00:01.93
     Peak level 75.7 %
     Track quality 100.0 %
     Test CRC DCCEB9C0
     Copy CRC DCCEB9C0
     Accurately ripped (confidence 4)  [7EDEB73B]
     Copy OK
Track 19
     Filename E:\Musik\Rip\Marty Willson-Piper\Marty Willson-Piper - 1988 - Art Attack [FLAC]\Marty Willson-Piper - 19 - How come they don't touch the ground.wav
     Pre-gap length  0:00:01.50
     Peak level 66.9 %
     Track quality 100.0 %
     Test CRC AD3730C9
     Copy CRC AD3730C9
     Accurately ripped (confidence 4)  [9DBFA2B4]
     Copy OK
All tracks accurately ripped
No errors occurred
End of status report
Код:
REM GENRE "Alt. Rock"
REM DATE 1988
REM DISCID 17113E13
REM COMMENT "ExactAudioCopy v0.99pb5"
FILE "Marty Willson-Piper - 01 - O' Stockholm.wav" WAVE
  TRACK 01 AUDIO
    FLAGS DCP
    INDEX 01 00:00:00
  TRACK 02 AUDIO
    FLAGS DCP
    INDEX 00 01:10:37
FILE "Marty Willson-Piper - 02 - Water.wav" WAVE
    INDEX 01 00:00:00
  TRACK 03 AUDIO
    FLAGS DCP
    INDEX 00 03:26:53
FILE "Marty Willson-Piper - 03 - She's King.wav" WAVE
    INDEX 01 00:00:00
  TRACK 04 AUDIO
    FLAGS DCP
    INDEX 00 04:00:10
FILE "Marty Willson-Piper - 04 - Too round to be Square.wav" WAVE
    INDEX 01 00:00:00
  TRACK 05 AUDIO
    FLAGS DCP
    INDEX 00 04:23:73
FILE "Marty Willson-Piper - 05 - You whisper.wav" WAVE
    INDEX 01 00:00:00
  TRACK 06 AUDIO
    FLAGS DCP
    INDEX 00 03:25:22
FILE "Marty Willson-Piper - 06 - Fear.wav" WAVE
    INDEX 01 00:00:00
  TRACK 07 AUDIO
    FLAGS DCP
    INDEX 00 00:48:18
FILE "Marty Willson-Piper - 07 - Evil Queen of England.wav" WAVE
    INDEX 01 00:00:00
  TRACK 08 AUDIO
    FLAGS DCP
    INDEX 00 04:53:02
FILE "Marty Willson-Piper - 08 - On the tip of my tounge.wav" WAVE
    INDEX 01 00:00:00
  TRACK 09 AUDIO
    FLAGS DCP
    INDEX 00 03:05:00
FILE "Marty Willson-Piper - 09 - Listen,Space.wav" WAVE
    INDEX 01 00:00:00
  TRACK 10 AUDIO
    FLAGS DCP
    INDEX 00 06:21:05
FILE "Marty Willson-Piper - 10 - Frightened just because of you.wav" WAVE
    INDEX 01 00:00:00
  TRACK 11 AUDIO
    FLAGS DCP
    INDEX 00 03:16:60
FILE "Marty Willson-Piper - 11 - White spots on my Jupiter finger, Jupiter blue on my white shirt.wav" WAVE
    INDEX 01 00:00:00
  TRACK 12 AUDIO
    FLAGS DCP
    INDEX 00 01:11:12
FILE "Marty Willson-Piper - 12 - Word.wav" WAVE
    INDEX 01 00:00:00
  TRACK 13 AUDIO
    FLAGS DCP
    INDEX 00 08:42:13
FILE "Marty Willson-Piper - 13 - Еh Stockholm.wav" WAVE
    INDEX 01 00:00:00
  TRACK 14 AUDIO
    FLAGS DCP
    INDEX 00 01:13:60
FILE "Marty Willson-Piper - 14 - Winter splinter bay.wav" WAVE
    INDEX 01 00:00:00
  TRACK 15 AUDIO
    FLAGS DCP
    INDEX 00 05:46:00
FILE "Marty Willson-Piper - 15 - The Lantern.wav" WAVE
    INDEX 01 00:00:00
  TRACK 16 AUDIO
    FLAGS DCP
    INDEX 00 04:31:37
FILE "Marty Willson-Piper - 16 - I know I won't.wav" WAVE
    INDEX 01 00:00:00
  TRACK 17 AUDIO
    FLAGS DCP
    INDEX 00 03:51:65
FILE "Marty Willson-Piper - 17 - Night is over.wav" WAVE
    INDEX 01 00:00:00
  TRACK 18 AUDIO
    FLAGS DCP
    INDEX 00 03:18:67
FILE "Marty Willson-Piper - 18 - Velvet fuselage.wav" WAVE
    INDEX 01 00:00:00
  TRACK 19 AUDIO
    FLAGS DCP
    INDEX 00 04:00:00
FILE "Marty Willson-Piper - 19 - How come they don't touch the ground.wav" WAVE
    INDEX 01 00:00:00
Код:
d:\>d:\aucdtect -d/-m0 d:\zzz\*.wav
auCDtect: CD records authenticity detector, version 0.8.2
Copyright (c) 2004 Oleg Berngardt. All rights reserved.
Copyright (c) 2004 Alexander Djourik. All rights reserved.
------------------------------------------------------------
Processing file: [01. O' Stockholm.wav]
------------------------------------------------------------
This track looks like CDDA with probability 99%
------------------------------------------------------------
Processing file: [02. Water.wav]
------------------------------------------------------------
This track looks like CDDA with probability 100%
------------------------------------------------------------
Processing file: [03. She's King.wav]
------------------------------------------------------------
This track looks like CDDA with probability 100%
------------------------------------------------------------
Processing file: [04. Too round to be Square.wav]
------------------------------------------------------------
This track looks like CDDA with probability 100%
------------------------------------------------------------
Processing file: [05. You whisper.wav]
------------------------------------------------------------
This track looks like CDDA with probability 100%
------------------------------------------------------------
Processing file: [06. Fear.wav]
------------------------------------------------------------
This track looks like CDDA with probability 100%
------------------------------------------------------------
Processing file: [07. Evil Queen of England.wav]
------------------------------------------------------------
This track looks like CDDA with probability 100%
------------------------------------------------------------
Processing file: [08. On the tip of my tounge.wav]
------------------------------------------------------------
This track looks like CDDA with probability 100%
------------------------------------------------------------
Processing file: [09. Listen-Space.wav]
------------------------------------------------------------
This track looks like CDDA with probability 100%
------------------------------------------------------------
Processing file: [10. Frightened just because of you.wav]
------------------------------------------------------------
This track looks like CDDA with probability 100%
------------------------------------------------------------
Processing file: [11. White spots on my Jupiter finger, Jupiter blue on my white shirt.wav]
------------------------------------------------------------
This track looks like CDDA with probability 100%
------------------------------------------------------------
Processing file: [12. Word.wav]
------------------------------------------------------------
This track looks like CDDA with probability 99%
------------------------------------------------------------
Processing file: [13. Ah Stockholm.wav]
------------------------------------------------------------
This track looks like CDDA with probability 100%
------------------------------------------------------------
Processing file: [14. Winter splinter bay.wav]
------------------------------------------------------------
This track looks like CDDA with probability 99%
------------------------------------------------------------
Processing file: [15. The Lantern.wav]
------------------------------------------------------------
This track looks like CDDA with probability 99%
------------------------------------------------------------
Processing file: [16. I know I won't.wav]
------------------------------------------------------------
This track looks like CDDA with probability 100%
------------------------------------------------------------
Processing file: [17. Night is over.wav]
------------------------------------------------------------
This track looks like CDDA with probability 99%
------------------------------------------------------------
Processing file: [18. Velvet fuselage.wav]
------------------------------------------------------------
This track looks like CDDA with probability 100%
------------------------------------------------------------
Processing file: [19. How come they don't touch the ground.wav]
------------------------------------------------------------
This track looks like CDDA with probability 100%
------------------------------------------------------------
Final Conclusion:
------------------------------------------------------------
These tracks looks like CDDA with probability 100%



Harmonica, Tambourine, Backing Vocals, Keyboards, Producer, Arranged By, Mixed By - Andy Mason
Lead Vocals, Backing Vocals, Guitar, Bass, Keyboards, Producer, Arranged By, Written-By - Marty Willson-Piper
Правила, инструкции, FAQ!!!
Торрент  Добавлен [26 мар 2019, 19:49] Скачать торрент Магнет ссылка
Скачать торрент
[ Размер 19.53 КБ / Просмотров 1 ]

Статус
Проверен 
 
Размер  437.58 МБ
Приватный: Нет (DHT включён)
.torrent скачан  0
 


     Отправить личное сообщение
   
Страница 1 из 1
Показать сообщения за:  Поле сортировки  
Начать новую тему Ответить на тему


Сейчас этот форум просматривают: нет зарегистрированных пользователей и гости: 0


Вы не можете начинать темы
Вы не можете отвечать на сообщения
Вы не можете редактировать свои сообщения
Вы не можете удалять свои сообщения
Вы не можете добавлять вложения

Перейти:  
cron