Начать новую тему Ответить на тему
Статистика раздачи
Размер: 1.53 ГБ | Добавлен: 26 мар 2019, 19:53 | Скачали: 0
Сидеров: 1  [0 байт/сек]    Личеров: 0  [0 байт/сек]
Пред. тема | След. тема 

Автор
Сообщение

СообщениеДобавлено: 26 мар 2019, 19:53 

Ответить с цитатой 


Livingston - Дискография

Жанр: Alternative Rock
Страна исполнителя (группы): UK / Germany
Издатель (лейбл): Universal Music (Manta Ray Music Ltd.) / Self-production
Страна-производитель дисков: Germany
Аудиокодек: FLAC (*.flac)
Тип рипа: tracks, tracks+.cue
Битрейт аудио: lossless
Продолжительность: 03:25:37
Источник (релизер): AtotIK
Наличие сканов в содержимом раздачи: да (300 dpi)
#777Носитель: CD
Номер по каталогу: MANTA202
Треклист:
01. Broken [04:26]
02. Weak [03:00]
03. Pride And Joy [03:00]
04. Silence [03:56]
05. Disease [04:29]
06. African Rain [03:01]
07. Draw The Line [05:08]
Код:
Exact Audio Copy V1.0 beta 3 from 29. August 2011
EAC extraction logfile from 16. December 2013, 21:25
Livingston / Wide Asleep
Used drive  : MATSHITADVD-RAM UJ8C2   Adapter: 0  ID: 0
Read mode               : Secure
Utilize accurate stream : Yes
Defeat audio cache      : Yes
Make use of C2 pointers : No
Read offset correction                      : 103
Overread into Lead-In and Lead-Out          : No
Fill up missing offset samples with silence : Yes
Delete leading and trailing silent blocks   : No
Null samples used in CRC calculations       : Yes
Used interface                              : Native Win32 interface for Win NT & 2000
Gap handling                                : Appended to previous track
Used output format              : User Defined Encoder
Selected bitrate                : 1024 kBit/s
Quality                         : High
Add ID3 tag                     : No
Command line compressor         : C:\Program Files (x86)\Exact Audio Copy\Flac\Flac.exe
Additional command line options : -V -8 -T "genre=%genre%" -T "artist=%artist%" -T "title=%title%" -T "album=%albumtitle%" -T "date=%year%" -T "tracknumber=%tracknr%" %source%
TOC of the extracted CD
     Track |   Start  |  Length  | Start sector | End sector
    ---------------------------------------------------------
        1  |  0:00.00 |  4:26.61 |         0    |    20010
        2  |  4:26.61 |  3:00.46 |     20011    |    33556
        3  |  7:27.32 |  3:00.61 |     33557    |    47117
        4  | 10:28.18 |  3:56.56 |     47118    |    64873
        5  | 14:24.74 |  4:29.03 |     64874    |    85051
        6  | 18:54.02 |  3:01.71 |     85052    |    98697
        7  | 21:55.73 |  5:08.13 |     98698    |   121810
Track  1
     Filename D:\EACRip\Livingston - Wide Asleep EP (2008) [FLAC]\01 - Broken.wav
     Pre-gap length  0:00:02.00
     Peak level 97.4 %
     Extraction speed 2.5 X
     Track quality 100.0 %
     Test CRC D4847A01
     Copy CRC D4847A01
     Accurately ripped (confidence 2)  [0AE28D42]  (AR v1)
     Copy OK
Track  2
     Filename D:\EACRip\Livingston - Wide Asleep EP (2008) [FLAC]\02 - Weak.wav
     Peak level 95.5 %
     Extraction speed 1.9 X
     Track quality 99.9 %
     Test CRC C23DE429
     Copy CRC C23DE429
     Accurately ripped (confidence 2)  [32E0389E]  (AR v1)
     Copy OK
Track  3
     Filename D:\EACRip\Livingston - Wide Asleep EP (2008) [FLAC]\03 - Pride And Joy.wav
     Pre-gap length  0:00:01.02
     Peak level 95.1 %
     Extraction speed 2.8 X
     Track quality 100.0 %
     Test CRC 3C84ABDF
     Copy CRC 3C84ABDF
     Accurately ripped (confidence 2)  [FCA2CA2A]  (AR v1)
     Copy OK
Track  4
     Filename D:\EACRip\Livingston - Wide Asleep EP (2008) [FLAC]\04 - Silence.wav
     Peak level 95.2 %
     Extraction speed 3.2 X
     Track quality 100.0 %
     Test CRC 04E675A5
     Copy CRC 04E675A5
     Accurately ripped (confidence 2)  [807CFA25]  (AR v1)
     Copy OK
Track  5
     Filename D:\EACRip\Livingston - Wide Asleep EP (2008) [FLAC]\05 - Disease.wav
     Pre-gap length  0:00:00.45
     Peak level 95.4 %
     Extraction speed 3.5 X
     Track quality 100.0 %
     Test CRC 13CE108A
     Copy CRC 13CE108A
     Accurately ripped (confidence 2)  [6C735026]  (AR v1)
     Copy OK
Track  6
     Filename D:\EACRip\Livingston - Wide Asleep EP (2008) [FLAC]\06 - African Rain.wav
     Pre-gap length  0:00:02.11
     Peak level 95.4 %
     Extraction speed 2.4 X
     Track quality 99.9 %
     Test CRC 040F1DEC
     Copy CRC 040F1DEC
     Accurately ripped (confidence 2)  [5D67E76A]  (AR v1)
     Copy OK
Track  7
     Filename D:\EACRip\Livingston - Wide Asleep EP (2008) [FLAC]\07 - Draw The Line.wav
     Pre-gap length  0:00:01.05
     Peak level 95.2 %
     Extraction speed 3.9 X
     Track quality 100.0 %
     Test CRC 7F2956D5
     Copy CRC 7F2956D5
     Accurately ripped (confidence 2)  [FECFECA3]  (AR v1)
     Copy OK
All tracks accurately ripped
No errors occurred
End of status report
==== Log checksum B105A7DD72B2396B0C5958A4C8C1E9537D14D81FE341EBF9754BF8C58D0F6737 ====
Код:
REM GENRE Rock
REM DATE 2008
REM DISCID 57065807
REM COMMENT "ExactAudioCopy v1.0b3"
PERFORMER "Livingston"
TITLE "Wide Asleep"
FILE "01 - Broken.wav" WAVE
  TRACK 01 AUDIO
    TITLE "Broken"
    PERFORMER "Livingston"
    ISRC GBNNY0800210
    INDEX 01 00:00:00
FILE "02 - Weak.wav" WAVE
  TRACK 02 AUDIO
    TITLE "Weak"
    PERFORMER "Livingston"
    ISRC GBNNY0800211
    INDEX 01 00:00:00
  TRACK 03 AUDIO
    TITLE "Pride And Joy"
    PERFORMER "Livingston"
    ISRC GBNNY0800212
    INDEX 00 02:59:44
FILE "03 - Pride And Joy.wav" WAVE
    INDEX 01 00:00:00
FILE "04 - Silence.wav" WAVE
  TRACK 04 AUDIO
    TITLE "Silence"
    PERFORMER "Livingston"
    ISRC GBNNY0800213
    INDEX 01 00:00:00
  TRACK 05 AUDIO
    TITLE "Disease"
    PERFORMER "Livingston"
    ISRC GBNNY0800214
    INDEX 00 03:56:11
FILE "05 - Disease.wav" WAVE
    INDEX 01 00:00:00
  TRACK 06 AUDIO
    TITLE "African Rain"
    PERFORMER "Livingston"
    ISRC GBNNY0800215
    INDEX 00 04:26:67
FILE "06 - African Rain.wav" WAVE
    INDEX 01 00:00:00
  TRACK 07 AUDIO
    TITLE "Draw The Line"
    PERFORMER "Livingston"
    ISRC GBNNY0800216
    INDEX 00 03:00:66
FILE "07 - Draw The Line.wav" WAVE
    INDEX 01 00:00:00
#777Носитель: CD
Номер по каталогу: 06025 2720940 1
Треклист:
01. Go [03:43]
02. Disease [03:45]
03. Silence [03:54]
04. Broken [04:01]
05. Six By Four [03:10]
06. Hold On [04:43]
07. Once Again [03:13]
08. Devil Man [04:43]
09. One Good Reason [04:35]
10. Come For Me [03:48]
11. Like A Wheel [03:54]
12. Vula [06:08]
Код:
Exact Audio Copy V1.0 beta 3 from 29. August 2011
EAC extraction logfile from 16. November 2013, 18:41
Livingston / Sign Language
Used drive  : MATSHITADVD-RAM UJ8C2   Adapter: 0  ID: 0
Read mode               : Secure
Utilize accurate stream : Yes
Defeat audio cache      : Yes
Make use of C2 pointers : No
Read offset correction                      : 103
Overread into Lead-In and Lead-Out          : No
Fill up missing offset samples with silence : Yes
Delete leading and trailing silent blocks   : No
Null samples used in CRC calculations       : Yes
Used interface                              : Native Win32 interface for Win NT & 2000
Gap handling                                : Appended to previous track
Used output format              : User Defined Encoder
Selected bitrate                : 1024 kBit/s
Quality                         : High
Add ID3 tag                     : No
Command line compressor         : C:\Program Files (x86)\Exact Audio Copy\Flac\Flac.exe
Additional command line options : -V -8 -T "genre=%genre%" -T "artist=%artist%" -T "title=%title%" -T "album=%albumtitle%" -T "date=%year%" -T "tracknumber=%tracknr%" %source%
TOC of the extracted CD
     Track |   Start  |  Length  | Start sector | End sector
    ---------------------------------------------------------
        1  |  0:00.00 |  3:43.12 |         0    |    16736
        2  |  3:43.12 |  3:45.64 |     16737    |    33675
        3  |  7:29.01 |  3:54.27 |     33676    |    51252
        4  | 11:23.28 |  4:01.69 |     51253    |    69396
        5  | 15:25.22 |  3:10.32 |     69397    |    83678
        6  | 18:35.54 |  4:43.68 |     83679    |   104971
        7  | 23:19.47 |  3:13.62 |    104972    |   119508
        8  | 26:33.34 |  4:43.58 |    119509    |   140791
        9  | 31:17.17 |  4:35.64 |    140792    |   161480
       10  | 35:53.06 |  3:48.13 |    161481    |   178593
       11  | 39:41.19 |  3:54.63 |    178594    |   196206
       12  | 43:36.07 |  6:08.38 |    196207    |   223844
Track  1
     Filename D:\EACRip\Livingston - Sign Language (2009) [FLAC]\01 - Go.wav
     Pre-gap length  0:00:02.00
     Peak level 99.9 %
     Extraction speed 2.5 X
     Track quality 100.0 %
     Test CRC 0245244E
     Copy CRC 0245244E
     Accurately ripped (confidence 7)  [63741E47]  (AR v2)
     Copy OK
Track  2
     Filename D:\EACRip\Livingston - Sign Language (2009) [FLAC]\02 - Disease.wav
     Pre-gap length  0:00:00.52
     Peak level 99.9 %
     Extraction speed 2.7 X
     Track quality 100.0 %
     Test CRC C6A4C70E
     Copy CRC C6A4C70E
     Accurately ripped (confidence 7)  [65B1F567]  (AR v2)
     Copy OK
Track  3
     Filename D:\EACRip\Livingston - Sign Language (2009) [FLAC]\03 - Silence.wav
     Peak level 99.9 %
     Extraction speed 2.2 X
     Track quality 99.9 %
     Test CRC 8D995A54
     Copy CRC 8D995A54
     Accurately ripped (confidence 7)  [203C1E49]  (AR v2)
     Copy OK
Track  4
     Filename D:\EACRip\Livingston - Sign Language (2009) [FLAC]\04 - Broken.wav
     Pre-gap length  0:00:02.52
     Peak level 99.9 %
     Extraction speed 3.2 X
     Track quality 100.0 %
     Test CRC 9B2BA4AD
     Copy CRC 9B2BA4AD
     Accurately ripped (confidence 7)  [DF1DFBA5]  (AR v2)
     Copy OK
Track  5
     Filename D:\EACRip\Livingston - Sign Language (2009) [FLAC]\05 - Six By Four.wav
     Pre-gap length  0:00:00.72
     Peak level 99.9 %
     Extraction speed 3.3 X
     Track quality 100.0 %
     Test CRC DC4DBB74
     Copy CRC DC4DBB74
     Accurately ripped (confidence 7)  [2B29B499]  (AR v2)
     Copy OK
Track  6
     Filename D:\EACRip\Livingston - Sign Language (2009) [FLAC]\06 - Hold On.wav
     Pre-gap length  0:00:00.24
     Peak level 99.9 %
     Extraction speed 3.7 X
     Track quality 100.0 %
     Test CRC CEE1DC0A
     Copy CRC CEE1DC0A
     Accurately ripped (confidence 7)  [D70463F4]  (AR v2)
     Copy OK
Track  7
     Filename D:\EACRip\Livingston - Sign Language (2009) [FLAC]\07 - Once Again.wav
     Pre-gap length  0:00:02.53
     Peak level 99.9 %
     Extraction speed 3.6 X
     Track quality 100.0 %
     Test CRC F450953D
     Copy CRC F450953D
     Accurately ripped (confidence 7)  [7300AC71]  (AR v2)
     Copy OK
Track  8
     Filename D:\EACRip\Livingston - Sign Language (2009) [FLAC]\08 - Devil Man.wav
     Pre-gap length  0:00:00.01
     Peak level 99.9 %
     Extraction speed 4.0 X
     Track quality 100.0 %
     Test CRC 097EBFD3
     Copy CRC 097EBFD3
     Accurately ripped (confidence 7)  [C5618AAE]  (AR v2)
     Copy OK
Track  9
     Filename D:\EACRip\Livingston - Sign Language (2009) [FLAC]\09 - One Good Reason.wav
     Pre-gap length  0:00:01.11
     Peak level 99.9 %
     Extraction speed 3.2 X
     Track quality 99.9 %
     Test CRC C519BF46
     Copy CRC C519BF46
     Accurately ripped (confidence 7)  [7B350B34]  (AR v2)
     Copy OK
Track 10
     Filename D:\EACRip\Livingston - Sign Language (2009) [FLAC]\10 - Come For Me.wav
     Pre-gap length  0:00:02.20
     Peak level 99.9 %
     Extraction speed 4.3 X
     Track quality 100.0 %
     Test CRC 2767BE43
     Copy CRC 2767BE43
     Accurately ripped (confidence 7)  [DED085A7]  (AR v2)
     Copy OK
Track 11
     Filename D:\EACRip\Livingston - Sign Language (2009) [FLAC]\11 - Like A Wheel.wav
     Pre-gap length  0:00:01.27
     Peak level 99.9 %
     Extraction speed 4.5 X
     Track quality 100.0 %
     Test CRC 16E51940
     Copy CRC 16E51940
     Accurately ripped (confidence 7)  [5F99C3DD]  (AR v2)
     Copy OK
Track 12
     Filename D:\EACRip\Livingston - Sign Language (2009) [FLAC]\12 - Vula.wav
     Pre-gap length  0:00:01.74
     Peak level 99.8 %
     Extraction speed 3.9 X
     Track quality 99.9 %
     Test CRC 7F8DF091
     Copy CRC 7F8DF091
     Accurately ripped (confidence 7)  [1BEC57C8]  (AR v2)
     Copy OK
All tracks accurately ripped
No errors occurred
End of status report
==== Log checksum D130706E7C2F5C99213A88B1F04AEBAA5C0902C56467748F971289B69C5C4574 ====
Код:
REM GENRE Rock
REM DATE 2009
REM DISCID A50BA80C
REM COMMENT "ExactAudioCopy v1.0b3"
CATALOG 0602527209401
PERFORMER "Livingston"
TITLE "Sign Language"
FILE "01 - Go.wav" WAVE
  TRACK 01 AUDIO
    TITLE "Go"
    PERFORMER "Livingston"
    ISRC DEUM70904545
    INDEX 01 00:00:00
  TRACK 02 AUDIO
    TITLE "Disease"
    PERFORMER "Livingston"
    ISRC DEUM70904546
    INDEX 00 03:42:35
FILE "02 - Disease.wav" WAVE
    INDEX 01 00:00:00
FILE "03 - Silence.wav" WAVE
  TRACK 03 AUDIO
    TITLE "Silence"
    PERFORMER "Livingston"
    ISRC DEUM70904547
    INDEX 01 00:00:00
  TRACK 04 AUDIO
    TITLE "Broken"
    PERFORMER "Livingston"
    ISRC DEUM70904544
    INDEX 00 03:51:50
FILE "04 - Broken.wav" WAVE
    INDEX 01 00:00:00
  TRACK 05 AUDIO
    TITLE "Six By Four"
    PERFORMER "Livingston"
    ISRC DEUM70904548
    INDEX 00 04:00:72
FILE "05 - Six By Four.wav" WAVE
    INDEX 01 00:00:00
  TRACK 06 AUDIO
    TITLE "Hold On"
    PERFORMER "Livingston"
    ISRC DEUM70904549
    INDEX 00 03:10:08
FILE "06 - Hold On.wav" WAVE
    INDEX 01 00:00:00
  TRACK 07 AUDIO
    TITLE "Once Again"
    PERFORMER "Livingston"
    ISRC DEUM70904550
    INDEX 00 04:41:15
FILE "07 - Once Again.wav" WAVE
    INDEX 01 00:00:00
  TRACK 08 AUDIO
    TITLE "Devil Man"
    PERFORMER "Livingston"
    ISRC DEUM70904551
    INDEX 00 03:13:61
FILE "08 - Devil Man.wav" WAVE
    INDEX 01 00:00:00
  TRACK 09 AUDIO
    TITLE "One Good Reason"
    PERFORMER "Livingston"
    ISRC DEUM70904552
    INDEX 00 04:42:47
FILE "09 - One Good Reason.wav" WAVE
    INDEX 01 00:00:00
  TRACK 10 AUDIO
    TITLE "Come For Me"
    PERFORMER "Livingston"
    ISRC DEUM70904553
    INDEX 00 04:33:44
FILE "10 - Come For Me.wav" WAVE
    INDEX 01 00:00:00
  TRACK 11 AUDIO
    TITLE "Like A Wheel"
    PERFORMER "Livingston"
    ISRC DEUM70904554
    INDEX 00 03:46:61
FILE "11 - Like A Wheel.wav" WAVE
    INDEX 01 00:00:00
  TRACK 12 AUDIO
    TITLE "Vula"
    PERFORMER "Livingston"
    ISRC DEUM70904555
    INDEX 00 03:52:64
FILE "12 - Vula.wav" WAVE
    INDEX 01 00:00:00
#777Носитель: WEB
Номер по каталогу: ---
Треклист:
1. Supernova [03:51]
2. Cut Me Loose [02:54]
Код:
AUDIOCHECKER v2.0 beta (build 457) - by Dester - opdester@freemail.hu
~~~~~~~~~~~~~~~~~~~~~~~~~~~~~~~~~~
-=== DO NOT EDIT THIS FILE! ===-
Path: ...\2012 - Supernova (Single) [FLAC]
1 -=- 01 - Supernova.flac -=- CDDA (100%)
2 -=- 02 - Cut Me Loose.flac -=- CDDA (100%)
Summary 100,00% CDDA
91848692
#777Носитель: CD
Номер по каталогу: 0602527924977
Треклист:
01. Perfect Dream [04:43]
02. Supernova [03:53]
03. No More Promises [03:48]
04. Set Fire To Fire [04:45]
05. Beautiful [04:22]
06. Quiet Not Crazy [03:49]
07. Somebody [04:23]
08. Here I Am [04:08]
09. Sink Or Swim [03:32]
10. In Circles [04:20]
11. Drop The Halo [04:12]
12. Soulskin [04:07]
Код:
Exact Audio Copy V1.0 beta 3 from 29. August 2011
EAC extraction logfile from 27. May 2013, 21:46
Livingston / Fire To Fire
Used drive  : Optiarc DVD RW AD-7585H   Adapter: 0  ID: 0
Read mode               : Secure
Utilize accurate stream : Yes
Defeat audio cache      : Yes
Make use of C2 pointers : No
Read offset correction                      : 6
Overread into Lead-In and Lead-Out          : No
Fill up missing offset samples with silence : Yes
Delete leading and trailing silent blocks   : No
Null samples used in CRC calculations       : Yes
Used interface                              : Native Win32 interface for Win NT & 2000
Gap handling                                : Appended to previous track
Used output format              : User Defined Encoder
Selected bitrate                : 896 kBit/s
Quality                         : High
Add ID3 tag                     : No
Command line compressor         : C:\Program Files\Exact Audio Copy\Flac\Flac.exe
Additional command line options : -V -8 -T "genre=%genre%" -T "artist=%artist%" -T "title=%title%" -T "album=%albumtitle%" -T "date=%year%" -T "tracknumber=%tracknr%" -T "comment=Exclusive by AtotIK @ Change.CD" %source%
TOC of the extracted CD
     Track |   Start  |  Length  | Start sector | End sector
    ---------------------------------------------------------
        1  |  0:00.00 |  4:43.17 |         0    |    21241
        2  |  4:43.17 |  3:53.56 |     21242    |    38772
        3  |  8:36.73 |  3:48.10 |     38773    |    55882
        4  | 12:25.08 |  4:45.11 |     55883    |    77268
        5  | 17:10.19 |  4:22.64 |     77269    |    96982
        6  | 21:33.08 |  3:49.35 |     96983    |   114192
        7  | 25:22.43 |  4:23.00 |    114193    |   133917
        8  | 29:45.43 |  4:08.06 |    133918    |   152523
        9  | 33:53.49 |  3:32.23 |    152524    |   168446
       10  | 37:25.72 |  4:20.07 |    168447    |   187953
       11  | 41:46.04 |  4:12.17 |    187954    |   206870
       12  | 45:58.21 |  4:07.34 |    206871    |   225429
Track  1
     Filename D:\EACRip\Livingston - Fire To Fire (2012) [FLAC]\01 - Perfect Dream.wav
     Pre-gap length  0:00:02.00
     Peak level 97.7 %
     Extraction speed 2.8 X
     Track quality 100.0 %
     Test CRC 91D3E4A4
     Copy CRC 91D3E4A4
     Track not present in AccurateRip database
     Copy OK
Track  2
     Filename D:\EACRip\Livingston - Fire To Fire (2012) [FLAC]\02 - Supernova.wav
     Peak level 97.7 %
     Extraction speed 3.0 X
     Track quality 100.0 %
     Test CRC 5A42EA83
     Copy CRC 5A42EA83
     Track not present in AccurateRip database
     Copy OK
Track  3
     Filename D:\EACRip\Livingston - Fire To Fire (2012) [FLAC]\03 - No More Promises.wav
     Peak level 97.7 %
     Extraction speed 3.3 X
     Track quality 100.0 %
     Test CRC ED969027
     Copy CRC ED969027
     Track not present in AccurateRip database
     Copy OK
Track  4
     Filename D:\EACRip\Livingston - Fire To Fire (2012) [FLAC]\04 - Set Fire To Fire.wav
     Peak level 97.7 %
     Extraction speed 3.6 X
     Track quality 100.0 %
     Test CRC 96B73077
     Copy CRC 96B73077
     Track not present in AccurateRip database
     Copy OK
Track  5
     Filename D:\EACRip\Livingston - Fire To Fire (2012) [FLAC]\05 - Beautiful.wav
     Peak level 97.7 %
     Extraction speed 3.8 X
     Track quality 100.0 %
     Test CRC BCD6FBD8
     Copy CRC BCD6FBD8
     Track not present in AccurateRip database
     Copy OK
Track  6
     Filename D:\EACRip\Livingston - Fire To Fire (2012) [FLAC]\06 - Quiet Not Crazy.wav
     Peak level 96.6 %
     Extraction speed 4.0 X
     Track quality 100.0 %
     Test CRC 77A4A4B0
     Copy CRC 77A4A4B0
     Track not present in AccurateRip database
     Copy OK
Track  7
     Filename D:\EACRip\Livingston - Fire To Fire (2012) [FLAC]\07 - Somebody.wav
     Peak level 97.7 %
     Extraction speed 4.2 X
     Track quality 100.0 %
     Test CRC A3FADBAB
     Copy CRC A3FADBAB
     Track not present in AccurateRip database
     Copy OK
Track  8
     Filename D:\EACRip\Livingston - Fire To Fire (2012) [FLAC]\08 - Here I Am.wav
     Peak level 97.7 %
     Extraction speed 4.4 X
     Track quality 100.0 %
     Test CRC 520B57A0
     Copy CRC 520B57A0
     Track not present in AccurateRip database
     Copy OK
Track  9
     Filename D:\EACRip\Livingston - Fire To Fire (2012) [FLAC]\09 - Sink Or Swim.wav
     Peak level 97.7 %
     Extraction speed 4.5 X
     Track quality 100.0 %
     Test CRC A0A4727F
     Copy CRC A0A4727F
     Track not present in AccurateRip database
     Copy OK
Track 10
     Filename D:\EACRip\Livingston - Fire To Fire (2012) [FLAC]\10 - In Circles.wav
     Peak level 97.7 %
     Extraction speed 4.6 X
     Track quality 100.0 %
     Test CRC 338A1BCF
     Copy CRC 338A1BCF
     Track not present in AccurateRip database
     Copy OK
Track 11
     Filename D:\EACRip\Livingston - Fire To Fire (2012) [FLAC]\11 - Drop The Halo.wav
     Peak level 97.7 %
     Extraction speed 4.9 X
     Track quality 100.0 %
     Test CRC 35B9DD26
     Copy CRC 35B9DD26
     Track not present in AccurateRip database
     Copy OK
Track 12
     Filename D:\EACRip\Livingston - Fire To Fire (2012) [FLAC]\12 - Soulskin.wav
     Peak level 97.7 %
     Extraction speed 5.0 X
     Track quality 100.0 %
     Test CRC 83F26DE4
     Copy CRC 83F26DE4
     Track not present in AccurateRip database
     Copy OK
None of the tracks are present in the AccurateRip database
No errors occurred
End of status report
==== Log checksum 5DB362F4D715A93535D3F081AA7A93F641F22FF39704B1DC31867724E4B822FD ====
Код:
REM GENRE Rock
REM DATE 2012
REM DISCID A20BBD0C
REM COMMENT "ExactAudioCopy v1.0b3"
CATALOG 0602527924977
PERFORMER "Livingston"
TITLE "Fire To Fire"
FILE "01 - Perfect Dream.wav" WAVE
  TRACK 01 AUDIO
    TITLE "Perfect Dream"
    PERFORMER "Livingston"
    ISRC DEUM71200879
    FLAGS DCP
    INDEX 01 00:00:00
FILE "02 - Supernova.wav" WAVE
  TRACK 02 AUDIO
    TITLE "Supernova"
    PERFORMER "Livingston"
    ISRC DEUM71200891
    FLAGS DCP
    INDEX 01 00:00:00
FILE "03 - No More Promises.wav" WAVE
  TRACK 03 AUDIO
    TITLE "No More Promises"
    PERFORMER "Livingston"
    ISRC DEUM71200880
    FLAGS DCP
    INDEX 01 00:00:00
FILE "04 - Set Fire To Fire.wav" WAVE
  TRACK 04 AUDIO
    TITLE "Set Fire To Fire"
    PERFORMER "Livingston"
    ISRC DEUM71200881
    FLAGS DCP
    INDEX 01 00:00:00
FILE "05 - Beautiful.wav" WAVE
  TRACK 05 AUDIO
    TITLE "Beautiful"
    PERFORMER "Livingston"
    ISRC DEUM71200882
    FLAGS DCP
    INDEX 01 00:00:00
FILE "06 - Quiet Not Crazy.wav" WAVE
  TRACK 06 AUDIO
    TITLE "Quiet Not Crazy"
    PERFORMER "Livingston"
    ISRC DEUM71200883
    FLAGS DCP
    INDEX 01 00:00:00
FILE "07 - Somebody.wav" WAVE
  TRACK 07 AUDIO
    TITLE "Somebody"
    PERFORMER "Livingston"
    ISRC DEUM71200884
    FLAGS DCP
    INDEX 01 00:00:00
FILE "08 - Here I Am.wav" WAVE
  TRACK 08 AUDIO
    TITLE "Here I Am"
    PERFORMER "Livingston"
    ISRC DEUM71200885
    FLAGS DCP
    INDEX 01 00:00:00
FILE "09 - Sink Or Swim.wav" WAVE
  TRACK 09 AUDIO
    TITLE "Sink Or Swim"
    PERFORMER "Livingston"
    ISRC DEUM71200885
    FLAGS DCP
    INDEX 01 00:00:00
FILE "10 - In Circles.wav" WAVE
  TRACK 10 AUDIO
    TITLE "In Circles"
    PERFORMER "Livingston"
    ISRC DEUM71200887
    FLAGS DCP
    INDEX 01 00:00:00
FILE "11 - Drop The Halo.wav" WAVE
  TRACK 11 AUDIO
    TITLE "Drop The Halo"
    PERFORMER "Livingston"
    ISRC DEUM71200888
    FLAGS DCP
    INDEX 01 00:00:00
FILE "12 - Soulskin.wav" WAVE
  TRACK 12 AUDIO
    TITLE "Soulskin"
    PERFORMER "Livingston"
    ISRC DEUM71200889
    FLAGS DCP
    INDEX 01 00:00:00
#777Носитель: CD
Номер по каталогу: SPV 267502 CD
Треклист:
01. Intro [02:34]
02. When It Goes Away [03:36]
03. Big Mouth [04:32]
04. Chemicals [04:39]
05. Time Bomb [05:18]
06. Skin & Bones [05:33]
07. The Hunter [04:48]
08. Opposite Tracks [05:30]
09. In My Head [03:18]
10. Into The Rain [03:55]
11. Reckless [03:33]
12. Human [04:35]
13. Animal [05:18]
Код:
Exact Audio Copy V1.0 beta 3 from 29. August 2011
EAC extraction logfile from 13. October 2014, 19:56
Livingston / Animal
Used drive  : MATSHITADVD-RAM UJ8C2   Adapter: 0  ID: 0
Read mode               : Secure
Utilize accurate stream : Yes
Defeat audio cache      : Yes
Make use of C2 pointers : No
Read offset correction                      : 103
Overread into Lead-In and Lead-Out          : No
Fill up missing offset samples with silence : Yes
Delete leading and trailing silent blocks   : No
Null samples used in CRC calculations       : Yes
Used interface                              : Native Win32 interface for Win NT & 2000
Gap handling                                : Appended to previous track
Used output format              : User Defined Encoder
Selected bitrate                : 1024 kBit/s
Quality                         : High
Add ID3 tag                     : No
Command line compressor         : C:\Program Files (x86)\Exact Audio Copy\Flac\Flac.exe
Additional command line options : -V -8 -T "genre=%genre%" -T "artist=%artist%" -T "title=%title%" -T "album=%albumtitle%" -T "date=%year%" -T "tracknumber=%tracknr%" -T "albumartist=%albumartist%" -T "discnumber=%cdnumber%" -T "totaldiscs=%totalcds%" -T "totaltracks=%numtracks%" %source%
TOC of the extracted CD
     Track |   Start  |  Length  | Start sector | End sector
    ---------------------------------------------------------
        1  |  0:00.00 |  2:34.61 |         0    |    11610
        2  |  2:34.61 |  3:36.58 |     11611    |    27868
        3  |  6:11.44 |  4:32.74 |     27869    |    48342
        4  | 10:44.43 |  4:39.63 |     48343    |    69330
        5  | 15:24.31 |  5:18.01 |     69331    |    93181
        6  | 20:42.32 |  5:33.17 |     93182    |   118173
        7  | 26:15.49 |  4:48.00 |    118174    |   139773
        8  | 31:03.49 |  5:30.71 |    139774    |   164594
        9  | 36:34.45 |  3:18.45 |    164595    |   179489
       10  | 39:53.15 |  3:55.48 |    179490    |   197162
       11  | 43:48.63 |  3:33.74 |    197163    |   213211
       12  | 47:22.62 |  4:35.39 |    213212    |   233875
       13  | 51:58.26 |  5:18.57 |    233876    |   257782
Track  1
     Filename D:\EACRip\Livingston - Animal (2014) [FLAC]\01 - Intro.wav
     Pre-gap length  0:00:02.00
     Peak level 96.5 %
     Extraction speed 2.3 X
     Track quality 100.0 %
     Test CRC A0BF8B36
     Copy CRC A0BF8B36
     Track not present in AccurateRip database
     Copy OK
Track  2
     Filename D:\EACRip\Livingston - Animal (2014) [FLAC]\02 - When It Goes Away.wav
     Pre-gap length  0:00:02.00
     Peak level 96.5 %
     Extraction speed 1.9 X
     Track quality 99.9 %
     Test CRC 2938A532
     Copy CRC 2938A532
     Track not present in AccurateRip database
     Copy OK
Track  3
     Filename D:\EACRip\Livingston - Animal (2014) [FLAC]\03 - Big Mouth.wav
     Pre-gap length  0:00:02.00
     Peak level 96.5 %
     Extraction speed 3.0 X
     Track quality 100.0 %
     Test CRC C187F435
     Copy CRC C187F435
     Track not present in AccurateRip database
     Copy OK
Track  4
     Filename D:\EACRip\Livingston - Animal (2014) [FLAC]\04 - Chemicals.wav
     Pre-gap length  0:00:02.00
     Peak level 96.5 %
     Extraction speed 2.5 X
     Track quality 99.9 %
     Test CRC D9ECA0C9
     Copy CRC D9ECA0C9
     Track not present in AccurateRip database
     Copy OK
Track  5
     Filename D:\EACRip\Livingston - Animal (2014) [FLAC]\05 - Time Bomb.wav
     Pre-gap length  0:00:02.00
     Peak level 96.6 %
     Extraction speed 3.5 X
     Track quality 100.0 %
     Test CRC 7BDCD0F6
     Copy CRC 7BDCD0F6
     Track not present in AccurateRip database
     Copy OK
Track  6
     Filename D:\EACRip\Livingston - Animal (2014) [FLAC]\06 - Skin & Bones.wav
     Pre-gap length  0:00:02.00
     Peak level 96.5 %
     Extraction speed 3.8 X
     Track quality 100.0 %
     Test CRC DD8B5696
     Copy CRC DD8B5696
     Track not present in AccurateRip database
     Copy OK
Track  7
     Filename D:\EACRip\Livingston - Animal (2014) [FLAC]\07 - The Hunter.wav
     Pre-gap length  0:00:02.00
     Peak level 96.5 %
     Extraction speed 4.0 X
     Track quality 100.0 %
     Test CRC D0F4EE40
     Copy CRC D0F4EE40
     Track not present in AccurateRip database
     Copy OK
Track  8
     Filename D:\EACRip\Livingston - Animal (2014) [FLAC]\08 - Opposite Tracks.wav
     Pre-gap length  0:00:02.00
     Peak level 96.5 %
     Extraction speed 4.3 X
     Track quality 100.0 %
     Test CRC 87F2D72A
     Copy CRC 87F2D72A
     Track not present in AccurateRip database
     Copy OK
Track  9
     Filename D:\EACRip\Livingston - Animal (2014) [FLAC]\09 - In My Head.wav
     Pre-gap length  0:00:01.74
     Peak level 96.5 %
     Extraction speed 4.2 X
     Track quality 100.0 %
     Test CRC B5E7A981
     Copy CRC B5E7A981
     Track not present in AccurateRip database
     Copy OK
Track 10
     Filename D:\EACRip\Livingston - Animal (2014) [FLAC]\10 - Into The Rain.wav
     Pre-gap length  0:00:02.00
     Peak level 96.5 %
     Extraction speed 4.4 X
     Track quality 100.0 %
     Test CRC 48D305A4
     Copy CRC 48D305A4
     Track not present in AccurateRip database
     Copy OK
Track 11
     Filename D:\EACRip\Livingston - Animal (2014) [FLAC]\11 - Reckless.wav
     Pre-gap length  0:00:01.74
     Peak level 96.5 %
     Extraction speed 4.5 X
     Track quality 100.0 %
     Test CRC 9C58BF4B
     Copy CRC 9C58BF4B
     Track not present in AccurateRip database
     Copy OK
Track 12
     Filename D:\EACRip\Livingston - Animal (2014) [FLAC]\12 - Human.wav
     Pre-gap length  0:00:01.74
     Peak level 96.5 %
     Extraction speed 3.6 X
     Track quality 99.9 %
     Test CRC 14D00559
     Copy CRC 14D00559
     Track not present in AccurateRip database
     Copy OK
Track 13
     Filename D:\EACRip\Livingston - Animal (2014) [FLAC]\13 - Animal.wav
     Peak level 96.5 %
     Extraction speed 5.1 X
     Track quality 100.0 %
     Test CRC A33432B8
     Copy CRC A33432B8
     Track not present in AccurateRip database
     Copy OK
None of the tracks are present in the AccurateRip database
No errors occurred
End of status report
==== Log checksum A6573FCA6C539B27C65B9B47044F6770C20A85344C51C5997EA6D96023DC4C14 ====
Код:
REM GENRE Rock
REM DATE 2014
REM DISCID B70D6D0D
REM COMMENT "ExactAudioCopy v1.0b3"
PERFORMER "Livingston"
TITLE "Animal"
FILE "01 - Intro.wav" WAVE
  TRACK 01 AUDIO
    TITLE "Intro"
    PERFORMER "Livingston"
    ISRC DEA451405480
    INDEX 01 00:00:00
  TRACK 02 AUDIO
    TITLE "When It Goes Away"
    PERFORMER "Livingston"
    ISRC DEA451405490
    INDEX 00 02:32:61
FILE "02 - When It Goes Away.wav" WAVE
    INDEX 01 00:00:00
  TRACK 03 AUDIO
    TITLE "Big Mouth"
    PERFORMER "Livingston"
    ISRC DEA451405500
    INDEX 00 03:34:58
FILE "03 - Big Mouth.wav" WAVE
    INDEX 01 00:00:00
  TRACK 04 AUDIO
    TITLE "Chemicals"
    PERFORMER "Livingston"
    ISRC DEA451405510
    INDEX 00 04:30:74
FILE "04 - Chemicals.wav" WAVE
    INDEX 01 00:00:00
  TRACK 05 AUDIO
    TITLE "Time Bomb"
    PERFORMER "Livingston"
    ISRC DEA451405520
    INDEX 00 04:37:63
FILE "05 - Time Bomb.wav" WAVE
    INDEX 01 00:00:00
  TRACK 06 AUDIO
    TITLE "Skin & Bones"
    PERFORMER "Livingston"
    ISRC DEA451405530
    INDEX 00 05:16:01
FILE "06 - Skin & Bones.wav" WAVE
    INDEX 01 00:00:00
  TRACK 07 AUDIO
    TITLE "The Hunter"
    PERFORMER "Livingston"
    ISRC DEA451405540
    INDEX 00 05:31:17
FILE "07 - The Hunter.wav" WAVE
    INDEX 01 00:00:00
  TRACK 08 AUDIO
    TITLE "Opposite Tracks"
    PERFORMER "Livingston"
    ISRC DEA451405550
    INDEX 00 04:46:00
FILE "08 - Opposite Tracks.wav" WAVE
    INDEX 01 00:00:00
  TRACK 09 AUDIO
    TITLE "In My Head"
    PERFORMER "Livingston"
    ISRC DEA451405560
    INDEX 00 05:28:72
FILE "09 - In My Head.wav" WAVE
    INDEX 01 00:00:00
  TRACK 10 AUDIO
    TITLE "Into The Rain"
    PERFORMER "Livingston"
    ISRC DEA451405570
    INDEX 00 03:16:45
FILE "10 - Into The Rain.wav" WAVE
    INDEX 01 00:00:00
  TRACK 11 AUDIO
    TITLE "Reckless"
    PERFORMER "Livingston"
    ISRC DEA451405580
    INDEX 00 03:53:49
FILE "11 - Reckless.wav" WAVE
    INDEX 01 00:00:00
  TRACK 12 AUDIO
    TITLE "Human"
    PERFORMER "Livingston"
    ISRC DEA451404020
    INDEX 00 03:32:00
FILE "12 - Human.wav" WAVE
    INDEX 01 00:00:00
FILE "13 - Animal.wav" WAVE
  TRACK 13 AUDIO
    TITLE "Animal"
    PERFORMER "Livingston"
    ISRC DEA451405590
    INDEX 01 00:00:00
#777Источник: Deluxe Fanbox Edition USB Stick
Номер по каталогу: ---
Треклист:
01. Big Mouth (Remix) [04:54]
02. In My Head (Remix) [03:06]
03. Reckless (Unwired) [03:23]
04. Time Bombs (Unwired) [03:16]
Код:
AUDIOCHECKER v2.0 beta (build 457) - by Dester - opdester@freemail.hu
~~~~~~~~~~~~~~~~~~~~~~~~~~~~~~~~~~
-=== DO NOT EDIT THIS FILE! ===-
Path: ...\2014 - Animal (USB) [FLAC]
1 -=- Livingston - Big Mouth (Remix).flac -=- CDDA (100%)
2 -=- Livingston - In My Head (Remix).flac -=- CDDA (100%)
3 -=- Livingston - Reckless (Unwired).flac -=- CDDA (100%)
4 -=- Livingston - Time Bombs (Unwired).flac -=- CDDA (100%)
Summary 100,00% CDDA
48358212

Правила, инструкции, FAQ!!!
Торрент  Добавлен [26 мар 2019, 19:53] Скачать торрент Магнет ссылка
Скачать торрент
[ Размер 23.62 КБ / Просмотров 7 ]

Статус
Проверен 
 
Размер  1.53 ГБ
Приватный: Нет (DHT включён)
.torrent скачан  0
 


     Отправить личное сообщение
   
Страница 1 из 1
Показать сообщения за:  Поле сортировки  
Начать новую тему Ответить на тему


Сейчас этот форум просматривают: нет зарегистрированных пользователей и гости: 0


Вы не можете начинать темы
Вы не можете отвечать на сообщения
Вы не можете редактировать свои сообщения
Вы не можете удалять свои сообщения
Вы не можете добавлять вложения

Перейти:  
cron