Начать новую тему Ответить на тему
Статистика раздачи
Размер: 288.95 МБ | Добавлен: 26 мар 2019, 19:51 | Скачали: 0
Сидеров: 2  [0 байт/сек]    Личеров: 1  [0 байт/сек]
Пред. тема | След. тема 

Автор
Сообщение

СообщениеДобавлено: 26 мар 2019, 19:51 

Ответить с цитатой 

Tokio Hotel -- Kings Of Suburbia
Жанр: Alternative Rock, Electronic Rock
Носитель: CD
Страна-производитель диска: EU
Год издания: 2014
Издатель (лейбл): Island Records
Номер по каталогу: 3798200
Страна исполнителя (группы): Germany
Аудиокодек: FLAC (*.flac)
Тип рипа: tracks+.cue
Битрейт аудио: lossless
Продолжительность: 00:39:11
Источник (релизер): what.cd \ Nahor
Наличие сканов в содержимом раздачи: да
Треклист:
01. FIA (Feel It All) [4:02]
02. SW (Stormy Weather) [3:30]
03. RRR (Run, Run, Run) [3:27]
04. LWLYB (Love Who Loves You Back) [3:50]
05. CIG (Covered In Gold) [4:30]
06. GGAG (Girl Got A Gun) [2:48]
07. KOS (Kings Of Suburbia) [3:24]
08. WFU (We Found Us) [3:24]
09. I (Invaded) [3:29]
10. NLYD (Never Let You Down) [3:13]
11. LTL (Louder Than Love) [3:36]
Код:
Exact Audio Copy V1.0 beta 3 from 29. August 2011
EAC extraction logfile from 7. October 2014, 12:00
Tokio Hotel / Kings Of Suburbia
Used drive  : ASUS    DRW-24B3ST   Adapter: 3  ID: 0
Read mode               : Secure
Utilize accurate stream : Yes
Defeat audio cache      : Yes
Make use of C2 pointers : No
Read offset correction                      : 6
Overread into Lead-In and Lead-Out          : No
Fill up missing offset samples with silence : Yes
Delete leading and trailing silent blocks   : No
Null samples used in CRC calculations       : Yes
Used interface                              : Native Win32 interface for Win NT & 2000
Gap handling                                : Appended to previous track
Used output format              : User Defined Encoder
Selected bitrate                : 1024 kBit/s
Quality                         : High
Add ID3 tag                     : No
Command line compressor         : C:\Program Files (x86)\Exact Audio Copy\FLAC\flac.exe
Additional command line options : -8 -V -T "ARTIST=%artist%" -T "TITLE=%title%" -T "ALBUM=%albumtitle%" -T "DATE=%year%" -T "TRACKNUMBER=%tracknr%" -T "GENRE=%genre%" -T "PERFORMER=%albuminterpret%" -T "COMPOSER=%composer%" %haslyrics%--tag-from-file=LYRICS="%lyricsfile%"%haslyrics% -T "ALBUMARTIST=%albumartist%" -T "DISCNUMBER=%cdnumber%" -T "TOTALDISCS=%totalcds%" -T "TOTALTRACKS=%numtracks%" -T "COMMENT=%comment%" %source% -o %dest%
TOC of the extracted CD
     Track |   Start  |  Length  | Start sector | End sector
    ---------------------------------------------------------
        1  |  0:00.00 |  4:01.42 |         0    |    18116
        2  |  4:01.42 |  3:29.60 |     18117    |    33851
        3  |  7:31.27 |  3:26.55 |     33852    |    49356
        4  | 10:58.07 |  3:50.16 |     49357    |    66622
        5  | 14:48.23 |  4:30.05 |     66623    |    86877
        6  | 19:18.28 |  2:47.54 |     86878    |    99456
        7  | 22:06.07 |  3:23.47 |     99457    |   114728
        8  | 25:29.54 |  3:24.01 |    114729    |   130029
        9  | 28:53.55 |  3:28.66 |    130030    |   145695
       10  | 32:22.46 |  3:13.32 |    145696    |   160202
       11  | 35:36.03 |  3:35.34 |    160203    |   176361
Track  1
     Filename C:\Tokio_Hotel-Kings_of_Suburbia-(06025_3798200-4)-CD-FLAC-2014-1nDD\(01) Feel It All.wav
     Pre-gap length  0:00:02.00
     Peak level 99.8 %
     Extraction speed 3.5 X
     Track quality 100.0 %
     Test CRC AC08F4CF
     Copy CRC AC08F4CF
     Track not present in AccurateRip database
     Copy OK
Track  2
     Filename C:\Tokio_Hotel-Kings_of_Suburbia-(06025_3798200-4)-CD-FLAC-2014-1nDD\(02) Stormy Weather.wav
     Pre-gap length  0:00:01.08
     Peak level 99.8 %
     Extraction speed 3.0 X
     Track quality 99.9 %
     Test CRC 48864E23
     Copy CRC 48864E23
     Track not present in AccurateRip database
     Copy OK
Track  3
     Filename C:\Tokio_Hotel-Kings_of_Suburbia-(06025_3798200-4)-CD-FLAC-2014-1nDD\(03) Run, Run, Run.wav
     Pre-gap length  0:00:00.38
     Peak level 99.8 %
     Extraction speed 4.0 X
     Track quality 100.0 %
     Test CRC 93BF1C4F
     Copy CRC 93BF1C4F
     Track not present in AccurateRip database
     Copy OK
Track  4
     Filename C:\Tokio_Hotel-Kings_of_Suburbia-(06025_3798200-4)-CD-FLAC-2014-1nDD\(04) Love Who Loves You Back.wav
     Pre-gap length  0:00:00.84
     Peak level 99.3 %
     Extraction speed 4.4 X
     Track quality 100.0 %
     Test CRC 0F9849B7
     Copy CRC 0F9849B7
     Track not present in AccurateRip database
     Copy OK
Track  5
     Filename C:\Tokio_Hotel-Kings_of_Suburbia-(06025_3798200-4)-CD-FLAC-2014-1nDD\(05) Covered On Gold.wav
     Pre-gap length  0:00:00.37
     Peak level 99.8 %
     Extraction speed 4.8 X
     Track quality 100.0 %
     Test CRC 25391985
     Copy CRC 25391985
     Track not present in AccurateRip database
     Copy OK
Track  6
     Filename C:\Tokio_Hotel-Kings_of_Suburbia-(06025_3798200-4)-CD-FLAC-2014-1nDD\(06) Girl Got A Gun.wav
     Pre-gap length  0:00:00.82
     Peak level 99.8 %
     Extraction speed 4.7 X
     Track quality 100.0 %
     Test CRC E09DD2D6
     Copy CRC E09DD2D6
     Track not present in AccurateRip database
     Copy OK
Track  7
     Filename C:\Tokio_Hotel-Kings_of_Suburbia-(06025_3798200-4)-CD-FLAC-2014-1nDD\(07) Kings Of Suburbia.wav
     Pre-gap length  0:00:00.89
     Peak level 99.8 %
     Extraction speed 5.1 X
     Track quality 100.0 %
     Test CRC 8EA48824
     Copy CRC 8EA48824
     Track not present in AccurateRip database
     Copy OK
Track  8
     Filename C:\Tokio_Hotel-Kings_of_Suburbia-(06025_3798200-4)-CD-FLAC-2014-1nDD\(08) We Found Us.wav
     Peak level 89.0 %
     Extraction speed 5.2 X
     Track quality 100.0 %
     Test CRC 7CED1529
     Copy CRC 7CED1529
     Track not present in AccurateRip database
     Copy OK
Track  9
     Filename C:\Tokio_Hotel-Kings_of_Suburbia-(06025_3798200-4)-CD-FLAC-2014-1nDD\(09) Invaded.wav
     Pre-gap length  0:00:00.38
     Peak level 99.8 %
     Extraction speed 5.5 X
     Track quality 100.0 %
     Test CRC 7467FAAA
     Copy CRC 7467FAAA
     Track not present in AccurateRip database
     Copy OK
Track 10
     Filename C:\Tokio_Hotel-Kings_of_Suburbia-(06025_3798200-4)-CD-FLAC-2014-1nDD\(10) Never Let You Down.wav
     Pre-gap length  0:00:00.34
     Peak level 99.8 %
     Extraction speed 5.6 X
     Track quality 100.0 %
     Test CRC 8A1EA6B8
     Copy CRC 8A1EA6B8
     Track not present in AccurateRip database
     Copy OK
Track 11
     Filename C:\Tokio_Hotel-Kings_of_Suburbia-(06025_3798200-4)-CD-FLAC-2014-1nDD\(11) Louder Than Love.wav
     Pre-gap length  0:00:00.42
     Peak level 98.8 %
     Extraction speed 4.6 X
     Track quality 99.9 %
     Test CRC 3DEC5D48
     Copy CRC 3DEC5D48
     Track not present in AccurateRip database
     Copy OK
None of the tracks are present in the AccurateRip database
No errors occurred
End of status report
---- CUETools DB Plugin V2.1.3
[CTDB TOCID: xR.GquOjmwH5.InW7.rgonu9kzE-] disk not present in database, Submit result: xR.GquOjmwH5.InW7.rgonu9kzE- has been uploaded
==== Log checksum 09ECCB58483D6403F3A14A6E6471E96AE7F41527DBE494B2CE84970B71C947D9 ====
Код:
REM GENRE Alternative Rock
REM DATE 2014
REM DISCID 84092F0B
REM COMMENT "ExactAudioCopy v1.0b3"
CATALOG 0602537982004
PERFORMER "Tokio Hotel"
TITLE "Kings Of Suburbia"
FILE "01 - Feel It All.wav" WAVE
  TRACK 01 AUDIO
    TITLE "Feel It All"
    PERFORMER "Tokio Hotel"
    ISRC DEUM71403053
    INDEX 01 00:00:00
  TRACK 02 AUDIO
    TITLE "Stormy Weather"
    PERFORMER "Tokio Hotel"
    ISRC DEUM71403054
    INDEX 00 04:00:36
FILE "02 - Stormy Weather.wav" WAVE
    INDEX 01 00:00:00
  TRACK 03 AUDIO
    TITLE "Run, Run, Run"
    PERFORMER "Tokio Hotel"
    ISRC DEUM71403055
    INDEX 00 03:29:31
FILE "03 - Run, Run, Run.wav" WAVE
    INDEX 01 00:00:00
  TRACK 04 AUDIO
    TITLE "Love Who Loves You Back"
    PERFORMER "Tokio Hotel"
    ISRC DEUM71403056
    INDEX 00 03:25:67
FILE "04 - Love Who Loves You Back.wav" WAVE
    INDEX 01 00:00:00
  TRACK 05 AUDIO
    TITLE "Covered On Gold"
    PERFORMER "Tokio Hotel"
    ISRC DEUM71403057
    INDEX 00 03:49:63
FILE "05 - Covered On Gold.wav" WAVE
    INDEX 01 00:00:00
  TRACK 06 AUDIO
    TITLE "Girl Got A Gun"
    PERFORMER "Tokio Hotel"
    ISRC DEUM71403058
    INDEX 00 04:29:18
FILE "06 - Girl Got A Gun.wav" WAVE
    INDEX 01 00:00:00
  TRACK 07 AUDIO
    TITLE "Kings Of Suburbia"
    PERFORMER "Tokio Hotel"
    ISRC DEUM71403059
    INDEX 00 02:46:62
FILE "07 - Kings Of Suburbia.wav" WAVE
    INDEX 01 00:00:00
FILE "08 - We Found Us.wav" WAVE
  TRACK 08 AUDIO
    TITLE "We Found Us"
    PERFORMER "Tokio Hotel"
    ISRC DEUM71403061
    INDEX 01 00:00:00
  TRACK 09 AUDIO
    TITLE "Invaded"
    PERFORMER "Tokio Hotel"
    ISRC DEUM71403060
    INDEX 00 03:23:47
FILE "09 - Invaded.wav" WAVE
    INDEX 01 00:00:00
  TRACK 10 AUDIO
    TITLE "Never Let You Down"
    PERFORMER "Tokio Hotel"
    ISRC DEUM71403062
    INDEX 00 03:28:40
FILE "10 - Never Let You Down.wav" WAVE
    INDEX 01 00:00:00
  TRACK 11 AUDIO
    TITLE "Louder Than Love"
    PERFORMER "Tokio Hotel"
    ISRC DEUM71403063
    INDEX 00 03:13:00
FILE "11 - Louder Than Love.wav" WAVE
    INDEX 01 00:00:00
Код:
[CUETools log; Date: 23.10.2014 14:15:54; Version: 2.1.2a]
[CTDB TOCID: xR.GquOjmwH5.InW7.rgonu9kzE-] found.
        [ CTDBID ] Status
        [4ddb34ed] (2/2) Accurately ripped
[AccurateRip ID: 00107fd8-008e0d00-84092f0b] disk not present in database.
Track Peak [ CRC32  ] [W/O NULL] [  LOG   ]
 --   99,8 [7B69547C] [7D78DEBB]
 01   99,8 [AC08F4CF] [463BC88E]   CRC32
 02   99,8 [48864E23] [E8024E87]   CRC32
 03   99,8 [93BF1C4F] [1B838C6C]   CRC32
 04   99,3 [0F9849B7] [1300CCF7]   CRC32
 05   99,8 [25391985] [210D6001]   CRC32
 06   99,8 [E09DD2D6] [52EB700C]   CRC32
 07   99,8 [8EA48824] [CEF3E28A]   CRC32
 08   89,0 [7CED1529] [878F3A82]   CRC32
 09   99,8 [7467FAAA] [E05AC175]   CRC32
 10   99,8 [8A1EA6B8] [0CE89A4F]   CRC32
 11   98,8 [3DEC5D48] [65CEC9B3]   CRC32
Правила, инструкции, FAQ!!!
Торрент  Добавлен [26 мар 2019, 19:51] Скачать торрент Магнет ссылка
Скачать торрент
[ Размер 13.15 КБ / Просмотров 10 ]

Статус
Проверен 
 
Размер  288.95 МБ
Приватный: Нет (DHT включён)
.torrent скачан  0
 


     Отправить личное сообщение
   
Страница 1 из 1
Показать сообщения за:  Поле сортировки  
Начать новую тему Ответить на тему


Сейчас этот форум просматривают: нет зарегистрированных пользователей и гости: 0


Вы не можете начинать темы
Вы не можете отвечать на сообщения
Вы не можете редактировать свои сообщения
Вы не можете удалять свои сообщения
Вы не можете добавлять вложения

Перейти:  
cron