Начать новую тему Ответить на тему
Статистика раздачи
Размер: 310.06 МБ | Добавлен: 26 мар 2019, 19:55 | Скачали: 0
Сидеров: 1  [0 байт/сек]    Личеров: 0  [0 байт/сек]
Пред. тема | След. тема 

Автор
Сообщение

СообщениеДобавлено: 26 мар 2019, 19:55 

Ответить с цитатой 

Myslovitz / Sun Machine
Жанр: Alternative Rock, Brit-Pop, Pop-Rock, Polish
Носитель: CD
Страна-производитель диска (релиза): pol
Год издания: 1996
Издатель (лейбл): Columbia
Номер по каталогу: COL 485072 - 2
Страна исполнителя (группы): pol
Аудиокодек: FLAC (*.flac)
Тип рипа: tracks+.cue
Битрейт аудио: lossless
Продолжительность: 45:42
Источник (релизер): net
Треклист:
1 Peggy Brown 3:32
2 Blue Velvet 2:49
3 Z Twarzą Marilyn Monroe 2:46
4 Jim Best 3:59
5 Amfetaminowa Siostra 5:06
6 Pierwszy Raz (Z Michelle J.) 4:14
7 Bunt Szesnastolatki 4:09
8 Funny Hill 3:47
9 Historia Jednej Znajomości 6:48
10 Good Day My Angel 6:56
11 Memory Of A Free Festival 1:24
Код:
Exact Audio Copy V1.3 from 2. September 2016
EAC extraction logfile from 12. March 2018, 8:32
Myslovitz / Sun Machine
Used drive  : ASUS    DRW-24B5ST   Adapter: 1  ID: 0
Read mode               : Secure
Utilize accurate stream : Yes
Defeat audio cache      : Yes
Make use of C2 pointers : No
Read offset correction                      : 6
Overread into Lead-In and Lead-Out          : No
Fill up missing offset samples with silence : Yes
Delete leading and trailing silent blocks   : No
Null samples used in CRC calculations       : Yes
Used interface                              : Native Win32 interface for Win NT & 2000
Gap handling                                : Appended to previous track
Used output format              : User Defined Encoder
Selected bitrate                : 1024 kBit/s
Quality                         : High
Add ID3 tag                     : No
Command line compressor         : C:\Program Files (x86)\Exact Audio Copy\Flac\flac.exe
Additional command line options : -8 -e -p -V -T "ARTIST=%artist%" -T "TITLE=%title%" -T "ALBUM=%albumtitle%" -T "DATE=%year%" -T "TRACKNUMBER=%tracknr%" -T "GENRE=%genre%" -T "PERFORMER=%albuminterpret%" -T "COMPOSER=%composer%" %haslyrics%--tag-from-file=LYRICS="%lyricsfile%"%haslyrics% -T "ALBUMARTIST=%albumartist%" -T "DISCNUMBER=%cdnumber%" -T "TOTALDISCS=%totalcds%" -T "TOTALTRACKS=%numtracks%" -T "COMMENT=%comment%" %source% -o %dest%
TOC of the extracted CD
     Track |   Start  |  Length  | Start sector | End sector
    ---------------------------------------------------------
        1  |  0:00.00 |  3:32.26 |         0    |    15925
        2  |  3:32.26 |  2:50.51 |     15926    |    28726
        3  |  6:23.02 |  2:47.38 |     28727    |    41289
        4  |  9:10.40 |  4:00.66 |     41290    |    59355
        5  | 13:11.31 |  5:07.16 |     59356    |    82396
        6  | 18:18.47 |  4:15.43 |     82397    |   101564
        7  | 22:34.15 |  4:09.12 |    101565    |   120251
        8  | 26:43.27 |  3:48.57 |    120252    |   137408
        9  | 30:32.09 |  6:48.19 |    137409    |   168027
       10  | 37:20.28 |  6:57.36 |    168028    |   199338
       11  | 44:17.64 |  1:23.63 |    199339    |   205626
Track  1
     Filename D:\EAC RIPS\Myslovitz - Sun Machine (1996) [FLAC]\01 Peggy Brown.wav
     Pre-gap length  0:00:02.00
     Peak level 99.1 %
     Extraction speed 4.8 X
     Track quality 100.0 %
     Test CRC 6023B353
     Copy CRC 6023B353
     Accurately ripped (confidence 6)  [E6BD4881]  (AR v2)
     Copy OK
Track  2
     Filename D:\EAC RIPS\Myslovitz - Sun Machine (1996) [FLAC]\02 Blue Velvet.wav
     Peak level 99.2 %
     Extraction speed 5.0 X
     Track quality 100.0 %
     Test CRC 3044EB56
     Copy CRC 3044EB56
     Accurately ripped (confidence 6)  [A8AD0ABC]  (AR v2)
     Copy OK
Track  3
     Filename D:\EAC RIPS\Myslovitz - Sun Machine (1996) [FLAC]\03 Z twarzą Marilyn Monroe.wav
     Pre-gap length  0:00:00.74
     Peak level 96.8 %
     Extraction speed 5.3 X
     Track quality 100.0 %
     Test CRC C3F48CEC
     Copy CRC C3F48CEC
     Accurately ripped (confidence 6)  [E1506514]  (AR v2)
     Copy OK
Track  4
     Filename D:\EAC RIPS\Myslovitz - Sun Machine (1996) [FLAC]\04 Jim Best.wav
     Pre-gap length  0:00:00.74
     Peak level 95.8 %
     Extraction speed 6.0 X
     Track quality 100.0 %
     Test CRC 2EAF50BB
     Copy CRC 2EAF50BB
     Accurately ripped (confidence 6)  [CD90608C]  (AR v2)
     Copy OK
Track  5
     Filename D:\EAC RIPS\Myslovitz - Sun Machine (1996) [FLAC]\05 Amfetaminowa siostra.wav
     Pre-gap length  0:00:00.74
     Peak level 99.9 %
     Extraction speed 6.7 X
     Track quality 100.0 %
     Test CRC 3CD9C69D
     Copy CRC 3CD9C69D
     Accurately ripped (confidence 6)  [40822695]  (AR v2)
     Copy OK
Track  6
     Filename D:\EAC RIPS\Myslovitz - Sun Machine (1996) [FLAC]\06 Pierwszy raz (z Michelle J.).wav
     Pre-gap length  0:00:00.74
     Peak level 98.4 %
     Extraction speed 7.1 X
     Track quality 100.0 %
     Test CRC 6F4EC091
     Copy CRC 6F4EC091
     Accurately ripped (confidence 6)  [28725CBE]  (AR v2)
     Copy OK
Track  7
     Filename D:\EAC RIPS\Myslovitz - Sun Machine (1996) [FLAC]\07 Bunt szesnastolatki.wav
     Pre-gap length  0:00:00.48
     Peak level 99.5 %
     Extraction speed 7.4 X
     Track quality 100.0 %
     Test CRC 1FD20AC6
     Copy CRC 1FD20AC6
     Accurately ripped (confidence 6)  [D2978303]  (AR v2)
     Copy OK
Track  8
     Filename D:\EAC RIPS\Myslovitz - Sun Machine (1996) [FLAC]\08 Funny Hill.wav
     Peak level 99.3 %
     Extraction speed 6.2 X
     Track quality 99.9 %
     Test CRC C8409664
     Copy CRC C8409664
     Accurately ripped (confidence 6)  [F4244C95]  (AR v2)
     Copy OK
Track  9
     Filename D:\EAC RIPS\Myslovitz - Sun Machine (1996) [FLAC]\09 Historia jednej znajomości.wav
     Pre-gap length  0:00:00.73
     Peak level 97.4 %
     Extraction speed 8.6 X
     Track quality 100.0 %
     Test CRC 1BE328A2
     Copy CRC 1BE328A2
     Accurately ripped (confidence 6)  [9E88915D]  (AR v2)
     Copy OK
Track 10
     Filename D:\EAC RIPS\Myslovitz - Sun Machine (1996) [FLAC]\10 Good Day My Angel.wav
     Peak level 99.9 %
     Extraction speed 9.2 X
     Track quality 100.0 %
     Test CRC B0DEF1FE
     Copy CRC B0DEF1FE
     Accurately ripped (confidence 6)  [7C5A39EB]  (AR v2)
     Copy OK
Track 11
     Filename D:\EAC RIPS\Myslovitz - Sun Machine (1996) [FLAC]\11 Memory of a Free Festival.wav
     Pre-gap length  0:00:00.74
     Peak level 96.8 %
     Extraction speed 7.1 X
     Track quality 100.0 %
     Test CRC 4D146623
     Copy CRC 4D146623
     Accurately ripped (confidence 6)  [47283B01]  (AR v2)
     Copy OK
All tracks accurately ripped
No errors occurred
End of status report
---- CUETools DB Plugin V2.1.6
[CTDB TOCID: CxYaC6z6utavy9tdtpIPxf4.5cY-] found
Submit result: CxYaC6z6utavy9tdtpIPxf4.5cY- has been confirmed
Track | CTDB Status
  1   | (58/58) Accurately ripped
  2   | (58/58) Accurately ripped
  3   | (58/58) Accurately ripped
  4   | (58/58) Accurately ripped
  5   | (58/58) Accurately ripped
  6   | (58/58) Accurately ripped
  7   | (58/58) Accurately ripped
  8   | (58/58) Accurately ripped
  9   | (58/58) Accurately ripped
 10   | (58/58) Accurately ripped
 11   | (58/58) Accurately ripped
==== Log checksum 4B399AD85200F2271424D423E97B11573D3BB4A4CD1C38797BF4D97885B3D13B ====
Код:
REM DATE 1996
REM DISCID 850AB50B
REM COMMENT "ExactAudioCopy v1.3"
CATALOG 0000000000000
PERFORMER "Myslovitz"
TITLE "Sun Machine"
REM COMPOSER ""
FILE "01 Peggy Brown.wav" WAVE
  TRACK 01 AUDIO
    TITLE "Peggy Brown"
    PERFORMER "Myslovitz"
    REM COMPOSER ""
    FLAGS DCP
    INDEX 01 00:00:00
FILE "02 Blue Velvet.wav" WAVE
  TRACK 02 AUDIO
    TITLE "Blue Velvet"
    PERFORMER "Myslovitz"
    REM COMPOSER ""
    FLAGS DCP
    INDEX 01 00:00:00
  TRACK 03 AUDIO
    TITLE "Z twarz№ Marilyn Monroe"
    PERFORMER "Myslovitz"
    REM COMPOSER ""
    FLAGS DCP
    INDEX 00 02:49:52
FILE "03 Z twarz№ Marilyn Monroe.wav" WAVE
    INDEX 01 00:00:00
  TRACK 04 AUDIO
    TITLE "Jim Best"
    PERFORMER "Myslovitz"
    REM COMPOSER ""
    FLAGS DCP
    INDEX 00 02:46:39
FILE "04 Jim Best.wav" WAVE
    INDEX 01 00:00:00
  TRACK 05 AUDIO
    TITLE "Amfetaminowa siostra"
    PERFORMER "Myslovitz"
    REM COMPOSER ""
    FLAGS DCP
    INDEX 00 03:59:67
FILE "05 Amfetaminowa siostra.wav" WAVE
    INDEX 01 00:00:00
  TRACK 06 AUDIO
    TITLE "Pierwszy raz (z Michelle J.)"
    PERFORMER "Myslovitz"
    REM COMPOSER ""
    FLAGS DCP
    INDEX 00 05:06:17
FILE "06 Pierwszy raz (z Michelle J.).wav" WAVE
    INDEX 01 00:00:00
  TRACK 07 AUDIO
    TITLE "Bunt szesnastolatki"
    PERFORMER "Myslovitz"
    REM COMPOSER ""
    FLAGS DCP
    INDEX 00 04:14:70
FILE "07 Bunt szesnastolatki.wav" WAVE
    INDEX 01 00:00:00
FILE "08 Funny Hill.wav" WAVE
  TRACK 08 AUDIO
    TITLE "Funny Hill"
    PERFORMER "Myslovitz"
    REM COMPOSER ""
    FLAGS DCP
    INDEX 01 00:00:00
  TRACK 09 AUDIO
    TITLE "Historia jednej znajomoњci"
    PERFORMER "Myslovitz"
    REM COMPOSER ""
    FLAGS DCP
    INDEX 00 03:47:59
FILE "09 Historia jednej znajomoњci.wav" WAVE
    INDEX 01 00:00:00
FILE "10 Good Day My Angel.wav" WAVE
  TRACK 10 AUDIO
    TITLE "Good Day My Angel"
    PERFORMER "Myslovitz"
    REM COMPOSER ""
    FLAGS DCP
    INDEX 01 00:00:00
  TRACK 11 AUDIO
    TITLE "Memory of a Free Festival"
    PERFORMER "Myslovitz"
    REM COMPOSER ""
    FLAGS DCP
    INDEX 00 06:56:37
FILE "11 Memory of a Free Festival.wav" WAVE
    INDEX 01 00:00:00
Код:
-----------------------
DON'T MODIFY THIS FILE
-----------------------
PERFORMER: auCDtect Task Manager, ver. 1.6.0 RC1 build 1.6.0.1
Copyright (c) 2008-2010 y-soft. All rights reserved
[url=http://y-soft.org]http://y-soft.org[/url]
ANALYZER: auCDtect: CD records authenticity detector, version 0.8.2
Copyright (c) 2004 Oleg Berngardt. All rights reserved.
Copyright (c) 2004 Alexander Djourik. All rights reserved.
FILE: 11 Memory of a Free Festival.flac
  Size: 7052042 Hash: F894D0A1B3B1C0FCCB66595BC33D01A0 Accuracy: -m0
  Conclusion: CDDA 100%
  Signature: 0FE41B9E0CF9CD4C927B1E09557F45C905DA38AF
FILE: 10 Good Day My Angel.flac
  Size: 41669657 Hash: F1BEEE25CC30056E63C2B9346E3DDFE0 Accuracy: -m0
  Conclusion: CDDA 100%
  Signature: FC3D973D36F4FD10C4403B9CF5D324AB4F76804C
FILE: 09 Historia jednej znajomości.flac
  Size: 45104512 Hash: 91A9297EB7BA7A10E7304149FA75F898 Accuracy: -m0
  Conclusion: CDDA 100%
  Signature: FB8018FE04BA651AC5FAB590C62D285B82E0D7CD
FILE: 08 Funny Hill.flac
  Size: 30902492 Hash: C170740AE8274DCBCF4C0648474F42C7 Accuracy: -m0
  Conclusion: CDDA 100%
  Signature: CE9E8852EF853475DA6D8E8FB812B1D3D8FED6A4
FILE: 07 Bunt szesnastolatki.flac
  Size: 31151764 Hash: F0AC8481009097041991112D75D6E40E Accuracy: -m0
  Conclusion: CDDA 99%
  Signature: 18879DA22D7D1192391BFF11B0A1649307B759FB
FILE: 06 Pierwszy raz (z Michelle J.).flac
  Size: 31648613 Hash: 46C7C4CD54B16D46BE2193EC4D764261 Accuracy: -m0
  Conclusion: CDDA 100%
  Signature: F1DF8F1A9A8CA4EC2F62FFEF96D54C745531AC98
FILE: 05 Amfetaminowa siostra.flac
  Size: 33332415 Hash: 7829462D3A26D411898C48DCB434E1C0 Accuracy: -m0
  Conclusion: CDDA 99%
  Signature: 86C4AAE108F30FEA47F3186E6DEACAC339127E80
FILE: 04 Jim Best.flac
  Size: 31667353 Hash: 8A78F9CD1333010C0A534833F82E20C4 Accuracy: -m0
  Conclusion: CDDA 99%
  Signature: 15EE46F0F0E989BCD31CF547E7EC5E34FD424A0B
FILE: 03 Z twarzą Marilyn Monroe.flac
  Size: 21475775 Hash: 2B34B2A890F769FDD170B88D6D953A71 Accuracy: -m0
  Conclusion: CDDA 100%
  Signature: FDAA45922299C36B5ADE906C211EC4E2989BE4F9
FILE: 02 Blue Velvet.flac
  Size: 22449031 Hash: 141C1EB3F5C4C067F6AE453BEF6E6C39 Accuracy: -m0
  Conclusion: CDDA 100%
  Signature: 03E19A074A777FF5BDB1EFA7BFE597F09644BD68
FILE: 01 Peggy Brown.flac
  Size: 28316073 Hash: F31E4B734D1E2C3C55B383C6FE012A17 Accuracy: -m0
  Conclusion: CDDA 99%
  Signature: 5A79C06BD597BFD7DD2773D471F7CB284CF065A6
[/spoiler]
Myslovitz — польская рок-группа, образованная в 1992 году в городе Мысловице. Название группы — это немецкое название данного города.
Состав
Михал Ковальонек — вокал, гитара
Войчех Повага — гитара
Пшемыслав Мышор — гитара
Яцек Кудерский — бас-гитара
Войчех Кудерский — ударная установка
История
Артур Роек образовал группу в 1992 году. Она завоевала несколько призов на фестивалях, после чего группа подписала контракт с издательством MJM Music Polska. В 1995 году группа выпустила альбом Myslovitz, хорошо принятый критиками. Продюсером был Ян Гаррис, ранее известный по сотрудничеству с такими музыкальными группами, как Joy Division, New Order и The Exploited. В 1996 году 'Myslovitz' выпустил свой второй альбом — Sun Machine с Кавер-версией другой мысловецкой группы. Эта песенка называлась Peggy Brown, на слова ирландского национального барда, Турлоуга О’Кароляна, которые на польский перевёл известный поэт Эрнест Брылль. Это одна из самых известных песен данной группы до сих пор, также одна из самых популярных польских рок-песен.
В 1997 году 'Myslovitz' выпустили третий альбом, Z rozmyślań przy śniadaniu. В 1998 году они записали песню To nie był film для фильма Młode wilki ½. Брутальный текст относился к преступникам и их бегству с места убийства. Песня была воспринята неоднозначно и бойкотировалась. В 1999 году большой успех группе принёс альбом Miłość w czasach popkultury. Сингл Długość dźwięku samotności стал самой известной песней группы. В 2000 году группа записала песенку для фильма Duże zwierzę с Ежи Штуром и Анной Дымной. В 2003 группа записала также песенку для фильма Штура Pogoda na jutro. В том же фильме группа «исполняла роль» ансамбля монахов в монастыре.
После большого коммерческого успеха альбома Miłość w czasach popkultury никто не думал, что альбом Korova Milky Bar 2002 года будет пользоваться такой же популярностью, однако и он очень хорошо продавался. В 2003 году ансамбль выпустил английскую версию этого альбома. Интересно, что видеоклип к нему снял двукратный лауреат премии Оскар кинооператор Януш Каминьский, который описал себя как фана Myslovitz. В 2005 году коллектив получил приз Европейской комиссии за альбом Korova Milky Bar — лидер продаж в 10 новых странах Евросоюза. В 2003 году группа выпустила альбом с лучшими песнями. Его открывал сингл Kraków, где вместе с Ройкем пел Марек Грехута. Коллектив много концертировал в Европе, в частности как «поддержка» Игги Поп.
В 2004 году группа выпустила альбом Skalary, mieczyki, neonki и в 2006 — Happiness Is Easy.
В 2012 году Артур Роек оставил группу. Новый вокалист Михал Ковальонек.
Bass – Jacek Kuderski
Drums – Wojtek Kuderski*
Guitar – Przemek Myszor*, Wojtek Powaga*
Keyboards [Guest] – Andrzej Smolik
Producer – Andrzej Paweł Wojciechowski
Vocals, Guitar – Artur Rojek
Written-By – A. Rojek*, J. Kuderski*, P. Myszor*, W. Kuderski*, W. Powaga*
[/spoiler]
Правила, инструкции, FAQ!!!
Торрент  Добавлен [26 мар 2019, 19:55] Скачать торрент Магнет ссылка
Скачать торрент
[ Размер 25.41 КБ / Просмотров 4 ]

Статус
Проверен 
 
Размер  310.06 МБ
Приватный: Нет (DHT включён)
.torrent скачан  0
 


     Отправить личное сообщение
   
Страница 1 из 1
Показать сообщения за:  Поле сортировки  
Начать новую тему Ответить на тему


Сейчас этот форум просматривают: нет зарегистрированных пользователей и гости: 0


Вы не можете начинать темы
Вы не можете отвечать на сообщения
Вы не можете редактировать свои сообщения
Вы не можете удалять свои сообщения
Вы не можете добавлять вложения

Перейти:  
cron