Начать новую тему Ответить на тему
Статистика раздачи
Размер: 426.6 МБ | Добавлен: 26 мар 2019, 19:55 | Скачали: 0
Сидеров: 1  [0 байт/сек]    Личеров: 0  [0 байт/сек]
Пред. тема | След. тема 

Автор
Сообщение

СообщениеДобавлено: 26 мар 2019, 19:55 

Ответить с цитатой 

Myslovitz / Z Rozmyślań Przy Śniadaniu
Жанр: Alternative Rock, Brit-Pop, Pop-Rock, Polish
Носитель: CD
Страна-производитель диска (релиза): pol
Год издания: 1997
Издатель (лейбл): Sony Music
Номер по каталогу: 47-489078-10
Страна исполнителя (группы): pol
Аудиокодек: FLAC (*.flac)
Тип рипа: tracks+.cue
Битрейт аудио: lossless
Продолжительность: 1 час
Источник (релизер): net
Треклист:
1 Zwykły Dzień 3:10
2 Scenariusz Dla Moich Sąsiadów 3:10
3 Przebudzenie 3:15
4 Uciekinier 4:24
5 Anioł 3:37
6 Margaret 4:04
7 Filmowa Miłość 2:46
8 Z Rozmyślań Przy Śniadaniu 2:31
9 Przemijania 3:29
10 Dwie Myśli 4:21
11 Zawód Fotograf 2:09
12 Głosy 2:46
13 Do Utraty Tchu 3:46
14 Myszy I Ludzie 5:28
15 Fabryczna 2:43
16 Wielki Błękit 4:56
17 James, Radiogłowi I Żuk Z Rewolwerem Jadą Do Nikąd 3:35
Код:
Exact Audio Copy V1.3 from 2. September 2016
EAC extraction logfile from 5. December 2017, 10:41
Myslovitz / Z Rozmyślań Przy Śniadaniu
Used drive  : HL-DT-STDVDRAM GH24NSD1   Adapter: 1  ID: 0
Read mode               : Secure
Utilize accurate stream : Yes
Defeat audio cache      : Yes
Make use of C2 pointers : No
Read offset correction                      : 6
Overread into Lead-In and Lead-Out          : No
Fill up missing offset samples with silence : Yes
Delete leading and trailing silent blocks   : No
Null samples used in CRC calculations       : Yes
Used interface                              : Native Win32 interface for Win NT & 2000
Gap handling                                : Appended to previous track
Used output format              : User Defined Encoder
Selected bitrate                : 768 kBit/s
Quality                         : High
Add ID3 tag                     : No
Command line compressor         : C:\Program Files (x86)\Exact Audio Copy\FLAC\FLAC.EXE
Additional command line options : -8 -V -T "ARTIST=%artist%" -T "TITLE=%title%" -T "ALBUM=%albumtitle%" -T "DATE=%year%" -T "TRACKNUMBER=%tracknr%" -T "TOTALTRACKS=%numtracks%" -T "GENRE=%genre%" -T "ALBUMARTIST=%albumartist%" -T "ALBUM ARTIST=%albumartist%" -T "COMMENT=PolishSource iNTERNAL | EAC Secure Mode, Test & Copy, AccurateRip, FLAC -8" %source%
TOC of the extracted CD
     Track |   Start  |  Length  | Start sector | End sector
    ---------------------------------------------------------
        1  |  0:00.00 |  3:11.18 |         0    |    14342
        2  |  3:11.18 |  3:12.02 |     14343    |    28744
        3  |  6:23.20 |  3:15.69 |     28745    |    43438
        4  |  9:39.14 |  4:24.66 |     43439    |    63304
        5  | 14:04.05 |  3:37.11 |     63305    |    79590
        6  | 17:41.16 |  4:04.04 |     79591    |    97894
        7  | 21:45.20 |  2:47.45 |     97895    |   110464
        8  | 24:32.65 |  2:32.68 |    110465    |   121932
        9  | 27:05.58 |  3:27.49 |    121933    |   137506
       10  | 30:33.32 |  4:21.13 |    137507    |   157094
       11  | 34:54.45 |  2:09.57 |    157095    |   166826
       12  | 37:04.27 |  2:46.10 |    166827    |   179286
       13  | 39:50.37 |  3:46.12 |    179287    |   196248
       14  | 43:36.49 |  5:28.56 |    196249    |   220904
       15  | 49:05.30 |  2:43.02 |    220905    |   233131
       16  | 51:48.32 |  5:02.26 |    233132    |   255807
       17  | 56:50.58 |  3:35.64 |    255808    |   271996
Track  1
     Filename C:\Users\Bernard\Music\Myslovitz - Z Rozmyslan Przy Sniadaniu (1997) [FLAC]\01 - Zwykły Dzień.wav
     Pre-gap length  0:00:02.00
     Peak level 97.7 %
     Extraction speed 0.9 X
     Track quality 99.9 %
     Test CRC 70EECD47
     Copy CRC 70EECD47
     Accurately ripped (confidence 3)  [63B2798C]  (AR v1)
     Copy OK
Track  2
     Filename C:\Users\Bernard\Music\Myslovitz - Z Rozmyslan Przy Sniadaniu (1997) [FLAC]\02 - Scenariusz Dla Moich Sąsiadów.wav
     Peak level 97.7 %
     Extraction speed 1.1 X
     Track quality 100.0 %
     Test CRC 1C8BF95C
     Copy CRC 1C8BF95C
     Accurately ripped (confidence 3)  [5EF50811]  (AR v1)
     Copy OK
Track  3
     Filename C:\Users\Bernard\Music\Myslovitz - Z Rozmyslan Przy Sniadaniu (1997) [FLAC]\03 - Przebudzenie.wav
     Peak level 97.5 %
     Extraction speed 1.2 X
     Track quality 100.0 %
     Test CRC B9D46543
     Copy CRC B9D46543
     Accurately ripped (confidence 3)  [B9807BC4]  (AR v1)
     Copy OK
Track  4
     Filename C:\Users\Bernard\Music\Myslovitz - Z Rozmyslan Przy Sniadaniu (1997) [FLAC]\04 - Uciekinier.wav
     Peak level 97.7 %
     Extraction speed 1.4 X
     Track quality 100.0 %
     Test CRC 7F52D18B
     Copy CRC 7F52D18B
     Accurately ripped (confidence 3)  [A4DFEBAE]  (AR v1)
     Copy OK
Track  5
     Filename C:\Users\Bernard\Music\Myslovitz - Z Rozmyslan Przy Sniadaniu (1997) [FLAC]\05 - Anioł.wav
     Peak level 97.7 %
     Extraction speed 1.2 X
     Track quality 99.9 %
     Test CRC 91221049
     Copy CRC 91221049
     Accurately ripped (confidence 3)  [6AD729D1]  (AR v1)
     Copy OK
Track  6
     Filename C:\Users\Bernard\Music\Myslovitz - Z Rozmyslan Przy Sniadaniu (1997) [FLAC]\06 - Margaret.wav
     Peak level 97.7 %
     Extraction speed 1.5 X
     Track quality 100.0 %
     Test CRC 029DE8EC
     Copy CRC 029DE8EC
     Accurately ripped (confidence 3)  [8005A627]  (AR v1)
     Copy OK
Track  7
     Filename C:\Users\Bernard\Music\Myslovitz - Z Rozmyslan Przy Sniadaniu (1997) [FLAC]\07 - Filmowa Miłość.wav
     Peak level 97.0 %
     Extraction speed 1.5 X
     Track quality 100.0 %
     Test CRC 83CA87D3
     Copy CRC 83CA87D3
     Accurately ripped (confidence 3)  [5BB9385C]  (AR v1)
     Copy OK
Track  8
     Filename C:\Users\Bernard\Music\Myslovitz - Z Rozmyslan Przy Sniadaniu (1997) [FLAC]\08 - Z Rozmyślań Przy Śniadaniu.wav
     Peak level 97.7 %
     Extraction speed 1.5 X
     Track quality 100.0 %
     Test CRC 83A06874
     Copy CRC 83A06874
     Accurately ripped (confidence 3)  [45FEBAD7]  (AR v1)
     Copy OK
Track  9
     Filename C:\Users\Bernard\Music\Myslovitz - Z Rozmyslan Przy Sniadaniu (1997) [FLAC]\09 - Przemijania.wav
     Peak level 97.4 %
     Extraction speed 1.7 X
     Track quality 100.0 %
     Test CRC CCAF38B1
     Copy CRC CCAF38B1
     Accurately ripped (confidence 3)  [CE17DBB3]  (AR v1)
     Copy OK
Track 10
     Filename C:\Users\Bernard\Music\Myslovitz - Z Rozmyslan Przy Sniadaniu (1997) [FLAC]\10 - Dwie Myśli.wav
     Peak level 97.7 %
     Extraction speed 1.8 X
     Track quality 100.0 %
     Test CRC 01E7F0B2
     Copy CRC 01E7F0B2
     Accurately ripped (confidence 3)  [30D2EF30]  (AR v1)
     Copy OK
Track 11
     Filename C:\Users\Bernard\Music\Myslovitz - Z Rozmyslan Przy Sniadaniu (1997) [FLAC]\11 - Zawód Fotograf.wav
     Peak level 97.4 %
     Extraction speed 1.6 X
     Track quality 100.0 %
     Test CRC BBC9DE28
     Copy CRC BBC9DE28
     Accurately ripped (confidence 3)  [607B56AD]  (AR v1)
     Copy OK
Track 12
     Filename C:\Users\Bernard\Music\Myslovitz - Z Rozmyslan Przy Sniadaniu (1997) [FLAC]\12 - Głosy.wav
     Peak level 97.6 %
     Extraction speed 1.8 X
     Track quality 100.0 %
     Test CRC EFE009BD
     Copy CRC EFE009BD
     Accurately ripped (confidence 3)  [84EA2C7A]  (AR v1)
     Copy OK
Track 13
     Filename C:\Users\Bernard\Music\Myslovitz - Z Rozmyslan Przy Sniadaniu (1997) [FLAC]\13 - Do Utraty Tchu.wav
     Peak level 97.7 %
     Extraction speed 1.9 X
     Track quality 100.0 %
     Test CRC B5DF18FD
     Copy CRC B5DF18FD
     Accurately ripped (confidence 3)  [48BADA9D]  (AR v1)
     Copy OK
Track 14
     Filename C:\Users\Bernard\Music\Myslovitz - Z Rozmyslan Przy Sniadaniu (1997) [FLAC]\14 - Myszy I Ludzie.wav
     Peak level 97.7 %
     Extraction speed 2.1 X
     Track quality 100.0 %
     Test CRC 3037C9AC
     Copy CRC 3037C9AC
     Accurately ripped (confidence 2)  [F31A1530]  (AR v1)
     Copy OK
Track 15
     Filename C:\Users\Bernard\Music\Myslovitz - Z Rozmyslan Przy Sniadaniu (1997) [FLAC]\15 - Fabryczna.wav
     Peak level 97.7 %
     Extraction speed 1.6 X
     Track quality 99.9 %
     Test CRC 67B7E209
     Copy CRC 67B7E209
     Accurately ripped (confidence 3)  [590A7407]  (AR v1)
     Copy OK
Track 16
     Filename C:\Users\Bernard\Music\Myslovitz - Z Rozmyslan Przy Sniadaniu (1997) [FLAC]\16 - Wielki Błękit.wav
     Peak level 97.7 %
     Extraction speed 2.2 X
     Track quality 100.0 %
     Test CRC D867514E
     Copy CRC D867514E
     Accurately ripped (confidence 3)  [8871C919]  (AR v1)
     Copy OK
Track 17
     Filename C:\Users\Bernard\Music\Myslovitz - Z Rozmyslan Przy Sniadaniu (1997) [FLAC]\17 - James, Radiogłowi I Żuk Z Rewolwerem Jadą Do Nikąd.wav
     Peak level 97.4 %
     Extraction speed 2.2 X
     Track quality 100.0 %
     Test CRC A64D8AAF
     Copy CRC A64D8AAF
     Accurately ripped (confidence 3)  [DA359ED2]  (AR v1)
     Copy OK
All tracks accurately ripped
No errors occurred
End of status report
---- CUETools DB Plugin V2.1.6
[CTDB TOCID: RAUMyArYKIfTPFDcwX50HoSwZwg-] found
Submit result: RAUMyArYKIfTPFDcwX50HoSwZwg- has been confirmed
Track | CTDB Status
  1   | (9/9) Accurately ripped
  2   | (9/9) Accurately ripped
  3   | (9/9) Accurately ripped
  4   | (9/9) Accurately ripped
  5   | (9/9) Accurately ripped
  6   | (9/9) Accurately ripped
  7   | (9/9) Accurately ripped
  8   | (8/9) Accurately ripped
  9   | (9/9) Accurately ripped
 10   | (8/9) Accurately ripped
 11   | (9/9) Accurately ripped
 12   | (8/9) Accurately ripped
 13   | (9/9) Accurately ripped
 14   | (8/9) Accurately ripped
 15   | (9/9) Accurately ripped
 16   | (9/9) Accurately ripped
 17   | (9/9) Accurately ripped
==== Log checksum 2863505DE0D61BC7857AE3CC5927475C6B3DFDD9FD869DE052B66EBA544E2436 ====
Код:
REM GENRE Rock
REM DATE 1997
REM DISCID E80E2A11
REM COMMENT "ExactAudioCopy v1.3"
PERFORMER "Myslovitz"
TITLE "Z Rozmyњlaс Przy Њniadaniu"
REM COMPOSER ""
FILE "01 - Zwykіy Dzieс.wav" WAVE
  TRACK 01 AUDIO
    TITLE "Zwykіy Dzieс"
    PERFORMER "Myslovitz"
    REM COMPOSER ""
    INDEX 01 00:00:00
FILE "02 - Scenariusz Dla Moich S№siadуw.wav" WAVE
  TRACK 02 AUDIO
    TITLE "Scenariusz Dla Moich S№siadуw"
    PERFORMER "Myslovitz"
    REM COMPOSER ""
    INDEX 01 00:00:00
FILE "03 - Przebudzenie.wav" WAVE
  TRACK 03 AUDIO
    TITLE "Przebudzenie"
    PERFORMER "Myslovitz"
    REM COMPOSER ""
    INDEX 01 00:00:00
FILE "04 - Uciekinier.wav" WAVE
  TRACK 04 AUDIO
    TITLE "Uciekinier"
    PERFORMER "Myslovitz"
    REM COMPOSER ""
    INDEX 01 00:00:00
FILE "05 - Anioі.wav" WAVE
  TRACK 05 AUDIO
    TITLE "Anioі"
    PERFORMER "Myslovitz"
    REM COMPOSER ""
    INDEX 01 00:00:00
FILE "06 - Margaret.wav" WAVE
  TRACK 06 AUDIO
    TITLE "Margaret"
    PERFORMER "Myslovitz"
    REM COMPOSER ""
    INDEX 01 00:00:00
FILE "07 - Filmowa Miіoњж.wav" WAVE
  TRACK 07 AUDIO
    TITLE "Filmowa Miіoњж"
    PERFORMER "Myslovitz"
    REM COMPOSER ""
    INDEX 01 00:00:00
FILE "08 - Z Rozmyњlaс Przy Њniadaniu.wav" WAVE
  TRACK 08 AUDIO
    TITLE "Z Rozmyњlaс Przy Њniadaniu"
    PERFORMER "Myslovitz"
    REM COMPOSER ""
    INDEX 01 00:00:00
FILE "09 - Przemijania.wav" WAVE
  TRACK 09 AUDIO
    TITLE "Przemijania"
    PERFORMER "Myslovitz"
    REM COMPOSER ""
    INDEX 01 00:00:00
FILE "10 - Dwie Myњli.wav" WAVE
  TRACK 10 AUDIO
    TITLE "Dwie Myњli"
    PERFORMER "Myslovitz"
    REM COMPOSER ""
    INDEX 01 00:00:00
FILE "11 - Zawуd Fotograf.wav" WAVE
  TRACK 11 AUDIO
    TITLE "Zawуd Fotograf"
    PERFORMER "Myslovitz"
    REM COMPOSER ""
    INDEX 01 00:00:00
FILE "12 - Gіosy.wav" WAVE
  TRACK 12 AUDIO
    TITLE "Gіosy"
    PERFORMER "Myslovitz"
    REM COMPOSER ""
    INDEX 01 00:00:00
FILE "13 - Do Utraty Tchu.wav" WAVE
  TRACK 13 AUDIO
    TITLE "Do Utraty Tchu"
    PERFORMER "Myslovitz"
    REM COMPOSER ""
    INDEX 01 00:00:00
FILE "14 - Myszy I Ludzie.wav" WAVE
  TRACK 14 AUDIO
    TITLE "Myszy I Ludzie"
    PERFORMER "Myslovitz"
    REM COMPOSER ""
    INDEX 01 00:00:00
FILE "15 - Fabryczna.wav" WAVE
  TRACK 15 AUDIO
    TITLE "Fabryczna"
    PERFORMER "Myslovitz"
    REM COMPOSER ""
    INDEX 01 00:00:00
FILE "16 - Wielki Bікkit.wav" WAVE
  TRACK 16 AUDIO
    TITLE "Wielki Bікkit"
    PERFORMER "Myslovitz"
    REM COMPOSER ""
    INDEX 01 00:00:00
FILE "17 - James, Radiogіowi I Їuk Z Rewolwerem Jad№ Do Nik№d.wav" WAVE
  TRACK 17 AUDIO
    TITLE "James, Radiogіowi I Їuk Z Rewolwerem Jad№ Do Nik№d"
    PERFORMER "Myslovitz"
    REM COMPOSER ""
    INDEX 01 00:00:00
Код:
-----------------------
DON'T MODIFY THIS FILE
-----------------------
PERFORMER: auCDtect Task Manager, ver. 1.6.0 RC1 build 1.6.0.1
Copyright (c) 2008-2010 y-soft. All rights reserved
[url=http://y-soft.org]http://y-soft.org[/url]
ANALYZER: auCDtect: CD records authenticity detector, version 0.8.2
Copyright (c) 2004 Oleg Berngardt. All rights reserved.
Copyright (c) 2004 Alexander Djourik. All rights reserved.
FILE: 17 - James, Radiogłowi I Żuk Z Rewolwerem Jadą Do Nikąd.flac
  Size: 23078160 Hash: 1A676C05F352D29C63BB72635331ED70 Accuracy: -m0
  Conclusion: CDDA 100%
  Signature: E76965B0E4776219DFC63E90009C99878E7E3613
FILE: 16 - Wielki Błękit.flac
  Size: 36656942 Hash: F6DDE11D8A2189278FBA1B65C6AE703D Accuracy: -m0
  Conclusion: CDDA 100%
  Signature: 51104DBB990CD15DB5F754CF402A9E2EB30CF231
FILE: 15 - Fabryczna.flac
  Size: 16994528 Hash: BD2AFD9010F146BBFD487A12D7C9A958 Accuracy: -m0
  Conclusion: CDDA 100%
  Signature: 5467558C8B57A63748217306DAC5A2600BC374DD
FILE: 14 - Myszy I Ludzie.flac
  Size: 40404112 Hash: 8CCFF87B742E16994F194D1E5B9F2280 Accuracy: -m0
  Conclusion: CDDA 100%
  Signature: D23A8B23C3806A0E8934B692297B1EE1B77800E6
FILE: 13 - Do Utraty Tchu.flac
  Size: 27178453 Hash: 4C6C0EE60EDD5E729F3D37983319B6FE Accuracy: -m0
  Conclusion: CDDA 100%
  Signature: 468CCE93CF038E0569943BABAF6364F49CD6CA66
FILE: 12 - Głosy.flac
  Size: 20964296 Hash: DDB5F61A9BA0C04E4B83C2BF853DDE37 Accuracy: -m0
  Conclusion: CDDA 100%
  Signature: 3339A269E3F1EF99563F02F0A66B53B4CCFD8C9B
FILE: 11 - Zawód Fotograf.flac
  Size: 16740491 Hash: 19A2F0C482C06E6D5B3FB3C80009EE9D Accuracy: -m0
  Conclusion: CDDA 100%
  Signature: 90AF3DE649939C6142795460904C4AB6720A461B
FILE: 10 - Dwie Myśli.flac
  Size: 34222807 Hash: 49421285F7C0EDAFBC1EC9929DD4C98C Accuracy: -m0
  Conclusion: CDDA 100%
  Signature: 3EBBD496310F71C4DD34653CD3D7C22C212C9B5A
FILE: 09 - Przemijania.flac
  Size: 23752339 Hash: F0F89E5F392FC22B60B8426952E77B18 Accuracy: -m0
  Conclusion: CDDA 100%
  Signature: 6C37243E0B54731B1B0C3BE532F332653FBE39CE
FILE: 08 - Z Rozmyślań Przy Śniadaniu.flac
  Size: 19881626 Hash: 8F0E52B8C40AB1FA16F037811F0F0A3D Accuracy: -m0
  Conclusion: CDDA 100%
  Signature: 98AAF667CD7641AEF2950BEE774CE7F458215F37
FILE: 07 - Filmowa Miłość.flac
  Size: 22845456 Hash: 9C1C7B4E239756772B2C0B91A43D95F5 Accuracy: -m0
  Conclusion: CDDA 100%
  Signature: FF272837BA1495B53B9CEA453E454858CAE9801A
FILE: 06 - Margaret.flac
  Size: 29219994 Hash: BD5EB6FF0CAE497F2D4D0C95FAD7DA25 Accuracy: -m0
  Conclusion: CDDA 100%
  Signature: A782E03CA3E7A43DBA78EADBDECE717DF16AF866
FILE: 05 - Anioł.flac
  Size: 28117451 Hash: DDF06B6F73F4AC817949D40E2CC050D0 Accuracy: -m0
  Conclusion: CDDA 100%
  Signature: 571962C37B01BBD5A69D60A4871A720EBB466E9B
FILE: 04 - Uciekinier.flac
  Size: 30844516 Hash: D4858963A82933554C6E77E8B191369D Accuracy: -m0
  Conclusion: CDDA 100%
  Signature: E59BC5FEA3D71E44AF260EF2733EF4005DE8B9D6
FILE: 03 - Przebudzenie.flac
  Size: 26821963 Hash: 5A95FEA02B162179E2E5D24F04546A5E Accuracy: -m0
  Conclusion: CDDA 100%
  Signature: 5EFA2E606457ADBF640D410083EE6D086C653E77
FILE: 02 - Scenariusz Dla Moich Sąsiadów.flac
  Size: 25338525 Hash: 65F6E9E2EA8B3AD456C97A6D4E993334 Accuracy: -m0
  Conclusion: CDDA 100%
  Signature: D8AFA00A2E188ABF97A9F521304A3DCBDA8B5252
FILE: 01 - Zwykły Dzień.flac
  Size: 24158237 Hash: 34CB9EA75FDEC269B337DAACF2F83E02 Accuracy: -m0
  Conclusion: CDDA 100%
  Signature: C8A24E40263BD53E6CA54A15604388114F382B62
[/spoiler]
Myslovitz — польская рок-группа, образованная в 1992 году в городе Мысловице. Название группы — это немецкое название данного города.
Состав
Михал Ковальонек — вокал, гитара
Войчех Повага — гитара
Пшемыслав Мышор — гитара
Яцек Кудерский — бас-гитара
Войчех Кудерский — ударная установка
История
Артур Роек образовал группу в 1992 году. Она завоевала несколько призов на фестивалях, после чего группа подписала контракт с издательством MJM Music Polska. В 1995 году группа выпустила альбом Myslovitz, хорошо принятый критиками. Продюсером был Ян Гаррис, ранее известный по сотрудничеству с такими музыкальными группами, как Joy Division, New Order и The Exploited. В 1996 году 'Myslovitz' выпустил свой второй альбом — Sun Machine с Кавер-версией другой мысловецкой группы. Эта песенка называлась Peggy Brown, на слова ирландского национального барда, Турлоуга О’Кароляна, которые на польский перевёл известный поэт Эрнест Брылль. Это одна из самых известных песен данной группы до сих пор, также одна из самых популярных польских рок-песен.
В 1997 году 'Myslovitz' выпустили третий альбом, Z rozmyślań przy śniadaniu. В 1998 году они записали песню To nie był film для фильма Młode wilki ½. Брутальный текст относился к преступникам и их бегству с места убийства. Песня была воспринята неоднозначно и бойкотировалась. В 1999 году большой успех группе принёс альбом Miłość w czasach popkultury. Сингл Długość dźwięku samotności стал самой известной песней группы. В 2000 году группа записала песенку для фильма Duże zwierzę с Ежи Штуром и Анной Дымной. В 2003 группа записала также песенку для фильма Штура Pogoda na jutro. В том же фильме группа «исполняла роль» ансамбля монахов в монастыре.
После большого коммерческого успеха альбома Miłość w czasach popkultury никто не думал, что альбом Korova Milky Bar 2002 года будет пользоваться такой же популярностью, однако и он очень хорошо продавался. В 2003 году ансамбль выпустил английскую версию этого альбома. Интересно, что видеоклип к нему снял двукратный лауреат премии Оскар кинооператор Януш Каминьский, который описал себя как фана Myslovitz. В 2005 году коллектив получил приз Европейской комиссии за альбом Korova Milky Bar — лидер продаж в 10 новых странах Евросоюза. В 2003 году группа выпустила альбом с лучшими песнями. Его открывал сингл Kraków, где вместе с Ройкем пел Марек Грехута. Коллектив много концертировал в Европе, в частности как «поддержка» Игги Поп.
В 2004 году группа выпустила альбом Skalary, mieczyki, neonki и в 2006 — Happiness Is Easy.
В 2012 году Артур Роек оставил группу. Новый вокалист Михал Ковальонек.
Bass, Acoustic Guitar, Chorus, Tambourine – Jaca Kuderski*
Drums – Lala*
Guitar – Przemek Myszor*, Wojtek Powaga*
Guitar, Vocals – Artur Rojek
Keyboards – Andrzej Smolik (tracks: 2, 8, 9, 12, 16)
Lyrics By – A. Rojek* (tracks: 2 to 7, 10 to 12, 16), J. Kuderski* (tracks: 1, 5, 8, 9, 13 to 15, 17), P. Myszor* (tracks: 1, 5, 8, 9, 13 to 15, 17), W. Kuderski* (tracks: 1, 5, 8, 9, 13 to 15, 17), W. Powaga* (tracks: 1, 5, 8, 9, 13 to 15, 17)
Mastered By – Grzegorz Piwkowski, Tomasz Bonarowski
Music By – A. Rojek* (tracks: 1, 2, 4, 6 to 13, 17), J. Kuderski* (tracks: 1, 2, 3, 5, 14, to 17), P. Myszor* (tracks: 1, 2, 3, 5, 14, to 17), W. Kuderski* (tracks: 1, 2, 3, 5, 14, to 17), W. Powaga* (tracks: 1, 2, 3, 5, 14, to 17)
Producer – Myslovitz, Tomasz Bonarowski
Recorded By – Roman Dmowski, Tomasz Bonarowski
[/spoiler]
Правила, инструкции, FAQ!!!
Торрент  Добавлен [26 мар 2019, 19:55] Скачать торрент Магнет ссылка
Скачать торрент
[ Размер 34.9 КБ / Просмотров 3 ]

Статус
Проверен 
 
Размер  426.6 МБ
Приватный: Нет (DHT включён)
.torrent скачан  0
 


     Отправить личное сообщение
   
Страница 1 из 1
Показать сообщения за:  Поле сортировки  
Начать новую тему Ответить на тему


Сейчас этот форум просматривают: нет зарегистрированных пользователей и гости: 0


Вы не можете начинать темы
Вы не можете отвечать на сообщения
Вы не можете редактировать свои сообщения
Вы не можете удалять свои сообщения
Вы не можете добавлять вложения

Перейти:  
cron