Начать новую тему Ответить на тему
Статистика раздачи
Размер: 176.6 МБ | Добавлен: 26 мар 2019, 20:09 | Скачали: 1
Сидеров: 1  [0 байт/сек]    Личеров: 0  [0 байт/сек]
Пред. тема | След. тема 

Автор
Сообщение

СообщениеДобавлено: 26 мар 2019, 20:09 

Ответить с цитатой 

Joan Osborne / St. Teresa
Жанр: Alternative Rock, Blues Rock
Год издания: 1996
Издатель (лейбл): Mercury
Номер по каталогу: 852 999-2
Аудиокодек: FLAC (*.flac)
Тип рипа: image+.cue
Битрейт аудио: lossless
Продолжительность: 16:55
Источник (релизер): собственный рип
Наличие сканов в содержимом раздачи: да
Треклист:
01. Joan Osborne - St. Teresa (edit) [04:07]
02. Joan Osborne - Spider Web (live) [05:25]
03. Joan Osborne - St. Teresa (live) [04:14]
04. Joan Osborne - Lumina [03:07]
Код:
Exact Audio Copy V1.0 beta 3 from 29. August 2011
EAC extraction logfile from 31. March 2012, 13:34
Joan Osborne / St. Teresa
Used drive  : PLEXTOR DVDR   PX-755A   Adapter: 0  ID: 1
Read mode               : Secure
Utilize accurate stream : Yes
Defeat audio cache      : Yes
Make use of C2 pointers : No
Read offset correction                      : 30
Overread into Lead-In and Lead-Out          : No
Fill up missing offset samples with silence : Yes
Delete leading and trailing silent blocks   : No
Null samples used in CRC calculations       : Yes
Used interface                              : Native Win32 interface for Win NT & 2000
Used output format              : User Defined Encoder
Selected bitrate                : 128 kBit/s
Quality                         : High
Add ID3 tag                     : No
Command line compressor         : C:\Program Files (x86)\Exact Audio Copy\Flac\flac.exe
Additional command line options : -8 -V -T "ARTIST=%artist%" -T "TITLE=%title%" -T "ALBUM=%albumtitle%" -T "DATE=%year%" -T "TRACKNUMBER=%tracknr%" -T "GENRE=%genre%" -T "COMMENT=ripped by Andy aka yetiisyou" %source%
TOC of the extracted CD
     Track |   Start  |  Length  | Start sector | End sector
    ---------------------------------------------------------
        1  |  0:00.00 |  4:09.65 |         0    |    18739
        2  |  4:09.65 |  5:27.70 |     18740    |    43334
        3  |  9:37.60 |  4:17.45 |     43335    |    62654
        4  | 13:55.30 |  3:07.45 |     62655    |    76724
Range status and errors
Selected range
     Filename E:\!Rips\Joan Osborne – St. Teresa [Mercury – 852 999-2] [1996]\Joan Osborne - St. Teresa.wav
     Peak level 100.0 %
     Extraction speed 2.3 X
     Range quality 100.0 %
     Test CRC CFB6D868
     Copy CRC CFB6D868
     Copy OK
No errors occurred
AccurateRip summary
Track  1  accurately ripped (confidence 4)  [92F9A8F0]  (AR v1)
Track  2  accurately ripped (confidence 4)  [1F9D4BE3]  (AR v1)
Track  3  accurately ripped (confidence 4)  [D0ECE7D7]  (AR v1)
Track  4  accurately ripped (confidence 4)  [919C0610]  (AR v1)
All tracks accurately ripped
End of status report
---- CUETools DB Plugin V2.1.3
[CTDB TOCID: 49D3crNsAgRf0Ysvzh2lBmPatF0-] found, Submit result: 49D3crNsAgRf0Ysvzh2lBmPatF0- has been confirmed
[6c205a58] (1/1) Accurately ripped
==== Log checksum 61DE96BCA126B10CBFDAFF0BE2FBB216251C6A6A80A3CC72D7F2F12B743DFCEB ====
Код:
REM DATE 1996
REM DISCID 3103FF04
REM COMMENT "ExactAudioCopy v1.0b3"
PERFORMER "Joan Osborne"
TITLE "St. Teresa"
FILE "Joan Osborne - St. Teresa.flac" WAVE
  TRACK 01 AUDIO
    TITLE "St. Teresa (edit)"
    PERFORMER "Joan Osborne"
    ISRC USPR39609404
    INDEX 01 00:00:00
  TRACK 02 AUDIO
    TITLE "Spider Web (live)"
    PERFORMER "Joan Osborne"
    ISRC USPR39609235
    INDEX 00 04:07:72
    INDEX 01 04:09:65
  TRACK 03 AUDIO
    TITLE "St. Teresa (live)"
    PERFORMER "Joan Osborne"
    ISRC USPR30609234
    INDEX 00 09:35:05
    INDEX 01 09:37:60
  TRACK 04 AUDIO
    TITLE "Lumina"
    PERFORMER "Joan Osborne"
    ISRC USPR39500206
    INDEX 00 13:52:50
    INDEX 01 13:55:30
Правила, инструкции, FAQ!!!
Торрент  Добавлен [26 мар 2019, 20:09] Скачать торрент Магнет ссылка
Скачать торрент
[ Размер 14.57 КБ / Просмотров 1 ]

Статус
Проверен 
 
Размер  176.6 МБ
Приватный: Нет (DHT включён)
.torrent скачан  1
 


     Отправить личное сообщение
   
Страница 1 из 1
Показать сообщения за:  Поле сортировки  
Начать новую тему Ответить на тему


Сейчас этот форум просматривают: нет зарегистрированных пользователей и гости: 0


Вы не можете начинать темы
Вы не можете отвечать на сообщения
Вы не можете редактировать свои сообщения
Вы не можете удалять свои сообщения
Вы не можете добавлять вложения

Перейти:  
cron