Начать новую тему Ответить на тему
Статистика раздачи
Размер: 69.72 МБ | Добавлен: 26 мар 2019, 20:15 | Скачали: 0
Сидеров: 0  [0 байт/сек]    Личеров: 0  [0 байт/сек]
Пред. тема | След. тема 

Автор
Сообщение

СообщениеДобавлено: 26 мар 2019, 20:15 

Ответить с цитатой 

Alanis Morissette - Hand In My Pocket (Single)
Жанр: Alternative rock
Год выпуска диска: 1995
Производитель диска: Германия
Аудио кодек: FLAC
Тип рипа: tracks+.cue
Битрейт аудио: lossless
Продолжительность: 11:46
Источник: DC
Трэклист:
01. Hand In My Pocket (3:39)
02. Head Over Feet (Live Acoustic) (4:10)
03. Not The Doctor (Live Acoustic) (3:57)
EAC extraction logfile from 1. December 2007, 9:22 for CD
Alanis Morissette / Hand In My Pocket
Used drive : PIONEER DVD-RW DVR-112D Adapter: 1 ID: 0
Read mode : Secure with NO C2, accurate stream, disable cache
Read offset correction : 48
Overread into Lead-In and Lead-Out : No
Used output format : C:\Program Files\FLAC\flac.exe (User Defined Encoder)
128 kBit/s
Additional command line options : -8 -V -T "ARTIST=%a" -T "TITLE=%t" -T "ALBUM=%g" -T "DATE=%y" -T "TRACKNUMBER=%n" -T "GENRE=%m" -T "COMMENT=EAC FLAC -8" %s
Other options :
Fill up missing offset samples with silence : Yes
Delete leading and trailing silent blocks : No
Installed external ASPI interface
Track 1
Filename E:\TORRENTs\Alanis Morissette - Hand In My Pocket (1995) [FLAC]{CD single}\01 - Hand In My Pocket.wav
Pre-gap length 0:00:02.00
Peak level 90.0 %
Track quality 99.9 %
Test CRC 86C9E2C1
Copy CRC 86C9E2C1
Copy OK
Track 2
Filename E:\TORRENTs\Alanis Morissette - Hand In My Pocket (1995) [FLAC]{CD single}\02 - Head Over Feet (Live Acoustic).wav
Pre-gap length 0:00:01.73
Peak level 89.8 %
Track quality 100.0 %
Test CRC 425F4028
Copy CRC 425F4028
Copy OK
Track 3
Filename E:\TORRENTs\Alanis Morissette - Hand In My Pocket (1995) [FLAC]{CD single}\03 - Not The Doctor (Live Acoustic).wav
Pre-gap length 0:00:02.17
Peak level 87.9 %
Track quality 99.7 %
Test CRC 1ACA2D59
Copy CRC 1ACA2D59
Copy OK
No errors occured
End of status report
CDImage.CUE:
Checking AccurateRip database
Track Ripping Status [Disc ID: 000198de-1302c203]
1 Accurately Ripped (confidence 4) [031dafd9]
2 Accurately Ripped (confidence 4) [7f3a2606]
3 Accurately Ripped (confidence 4) [a54d16a0]
_______________________
All Tracks Accurately Ripped.
AUDIOCHECKER v2.0 beta (build 457) - by Dester - opdester@freemail.hu
~~~~~~~~~~~~~~~~~~~~~~~~~~~~~~~~~~
-=== DO NOT EDIT THIS FILE! ===-
Path: ...\Alanis Morissette - 1995 - Hand In My Pocket [Single]
1 -=- 01 - Hand In My Pocket.flac -=- CDDA (100%)
2 -=- 02 - Head Over Feet (Live Acoustic).flac -=- CDDA (99%)
3 -=- 03 - Not The Doctor (Live Acoustic).flac -=- CDDA (100%)
Summary 99.67% CDDA
242942836
Правила, инструкции, FAQ!!!
Торрент  Добавлен [26 мар 2019, 20:15] Скачать торрент Магнет ссылка
Скачать торрент
[ Размер 11.98 КБ / Просмотров 2 ]

Статус
Проверен 
 
Размер  69.72 МБ
Приватный: Нет (DHT включён)
.torrent скачан  0
 


     Отправить личное сообщение
   
Страница 1 из 1
Показать сообщения за:  Поле сортировки  
Начать новую тему Ответить на тему


Сейчас этот форум просматривают: нет зарегистрированных пользователей и гости: 0


Вы не можете начинать темы
Вы не можете отвечать на сообщения
Вы не можете редактировать свои сообщения
Вы не можете удалять свои сообщения
Вы не можете добавлять вложения

Перейти:  
cron