Начать новую тему Ответить на тему
Статистика раздачи
Размер: 407.68 МБ | Добавлен: 26 мар 2019, 19:14 | Скачали: 0
Сидеров: 0  [0 байт/сек]    Личеров: 0  [0 байт/сек]
Пред. тема | След. тема 

Автор
Сообщение

СообщениеДобавлено: 26 мар 2019, 19:14 

Ответить с цитатой 

Alanis Morissette - MTV Unplugged
Жанр: Alternative Rock, Acoustic Rock
Год выпуска диска: 1999
Производитель диска: США
Аудио кодек: FLAC
Тип рипа: image+.cue
Битрейт аудио: lossless
Продолжительность: 53:44
Источник: ed2k
Трэклист:
01. You Learn (4:22)
02. Joining You (5:09)
03. No Pressure Over Cappuccino (4:41)
04. That I Would Be Good (4:14)
05. Head Over Feet (4:23)
06. Princes Familiar (4:37)
07. I Was Hoping (4:54)
08. Ironic (4:14)
09. These R The Thoughts (3:26)
10. King Of Pain (4:05)
11. You Oughta Know (5:02)
12. Uninvited (4:37)
EAC extraction logfile from 11. August 2004, 16:39 for CD
Alanis Morissette / MTV Unplugged
Used drive : PLEXTOR CD-R PREMIUM Adapter: 1 ID: 1
Read mode : Secure with NO C2, accurate stream, disable cache
Read offset correction : 0 //Offset поправлен (+30) с использованием CUETools
Overread into Lead-In and Lead-Out : No
Used output format : Internal WAV Routines
44.100 Hz; 16 Bit; Stereo
Other options :
Fill up missing offset samples with silence : Yes
Delete leading and trailing silent blocks : No
Installed external ASPI interface
Range status and errors
Selected range
Filename H:\WAV2xxx\Alanis Morissette - MTV Unplugged.wav
Peak level 100.0 %
Range quality 100.0 %
CRC 213BED82
Copy OK
No errors occured
End of status report
[Disc ID: 0018365b-00e0ed11-a70c970c]
Offset applied: 30
Track [ CRC ] Status
01 [38ca91ee] (100/142) Accurately ripped as in pressing(s) #1
02 [7d8c7f53] (104/143) Accurately ripped as in pressing(s) #1
03 [2f30e922] (103/143) Accurately ripped as in pressing(s) #1
04 [aa2b9952] (104/143) Accurately ripped as in pressing(s) #1
05 [fa42efe7] (102/141) Accurately ripped as in pressing(s) #1
06 [645764f3] (103/142) Accurately ripped as in pressing(s) #1
07 [1b68494a] (103/142) Accurately ripped as in pressing(s) #1
08 [7cdb257b] (104/144) Accurately ripped as in pressing(s) #1
09 [19dc9d9f] (104/144) Accurately ripped as in pressing(s) #1
10 [6a5d7207] (105/144) Accurately ripped as in pressing(s) #1
11 [0c73579a] (104/143) Accurately ripped as in pressing(s) #1
12 [bd30eda7] (103/140) Accurately ripped as in pressing(s) #1

Offsetted by -1280:
01 [638d4e9b] (04/142) Accurately ripped as in pressing(s) #6
02 [4b9e1bf9] (03/143) Accurately ripped as in pressing(s) #6
03 [3132ad62] (04/143) Accurately ripped as in pressing(s) #6
04 [3d866c06] (03/143) Accurately ripped as in pressing(s) #6
05 [8637393f] (03/141) Accurately ripped as in pressing(s) #6
06 [a013f6cf] (03/142) Accurately ripped as in pressing(s) #6
07 [1a65b56a] (03/142) Accurately ripped as in pressing(s) #6
08 [2a68640f] (04/144) Accurately ripped as in pressing(s) #6
09 [77a0e749] (04/144) Accurately ripped as in pressing(s) #6
10 [fc4d99a0] (03/144) Accurately ripped as in pressing(s) #6
11 [433510b5] (03/143) Accurately ripped as in pressing(s) #6
12 [8ca5178e] (03/140) Accurately ripped as in pressing(s) #6
Offsetted by -634:
01 [183731f7] (23/142) Accurately ripped as in pressing(s) #3
02 [36b74ac7] (23/143) Accurately ripped as in pressing(s) #3
03 [b71e31e8] (23/143) Accurately ripped as in pressing(s) #3
04 [ec7f8fc9] (23/143) Accurately ripped as in pressing(s) #3
05 [8d5bd9c5] (23/141) Accurately ripped as in pressing(s) #3
06 [e5dd128e] (23/142) Accurately ripped as in pressing(s) #3
07 [7f281707] (23/142) Accurately ripped as in pressing(s) #3
08 [6de113aa] (23/144) Accurately ripped as in pressing(s) #3
09 [2d16e202] (23/144) Accurately ripped as in pressing(s) #3
10 [5b450bc8] (23/144) Accurately ripped as in pressing(s) #3
11 [fce2d07b] (23/143) Accurately ripped as in pressing(s) #3
12 [823a22cb] (21/140) Accurately ripped as in pressing(s) #4
Offsetted by -38:
01 [53cc3668] (02/142) Accurately ripped as in pressing(s) #4
02 [c426b4f0] (02/143) Accurately ripped as in pressing(s) #4
03 [18661690] (02/143) Accurately ripped as in pressing(s) #4
04 [5d21e86e] (02/143) Accurately ripped as in pressing(s) #4
05 [287d3455] (02/141) Accurately ripped as in pressing(s) #4
06 [84d1d7bf] (02/142) Accurately ripped as in pressing(s) #4
07 [7f91f2eb] (02/142) Accurately ripped as in pressing(s) #4
08 [e4cc589f] (02/144) Accurately ripped as in pressing(s) #4
09 [98d8e88c] (02/144) Accurately ripped as in pressing(s) #4
10 [e6d1fb21] (02/144) Accurately ripped as in pressing(s) #4
11 [c66c96f8] (02/143) Accurately ripped as in pressing(s) #4
12 [a7791e5e] (02/140) Accurately ripped as in pressing(s) #3
Offsetted by 0:
01 [884e9cee] (03/142) Accurately ripped as in pressing(s) #5
02 [e2efcc75] (03/143) Accurately ripped as in pressing(s) #5
03 [0fa8cc04] (03/143) Accurately ripped as in pressing(s) #5
04 [910529d8] (03/143) Accurately ripped as in pressing(s) #5
05 [0e831ce0] (03/141) Accurately ripped as in pressing(s) #5
06 [85a3ff88] (03/142) Accurately ripped as in pressing(s) #5
07 [66287be0] (03/142) Accurately ripped as in pressing(s) #5
08 [3f784676] (03/144) Accurately ripped as in pressing(s) #5
09 [d2b3b2fe] (03/144) Accurately ripped as in pressing(s) #5
10 [3d3bf4d1] (03/144) Accurately ripped as in pressing(s) #5
11 [b6bfa95f] (03/143) Accurately ripped as in pressing(s) #5
12 [ae8361f0] (03/140) Accurately ripped as in pressing(s) #5
Правила, инструкции, FAQ!!!
Торрент  Добавлен [26 мар 2019, 19:14] Скачать торрент Магнет ссылка
Скачать торрент
[ Размер 17.05 КБ / Просмотров 3 ]

Статус
Проверен 
 
Размер  407.68 МБ
Приватный: Нет (DHT включён)
.torrent скачан  0
 


     Отправить личное сообщение
   
Страница 1 из 1
Показать сообщения за:  Поле сортировки  
Начать новую тему Ответить на тему


Сейчас этот форум просматривают: нет зарегистрированных пользователей и гости: 0


Вы не можете начинать темы
Вы не можете отвечать на сообщения
Вы не можете редактировать свои сообщения
Вы не можете удалять свои сообщения
Вы не можете добавлять вложения

Перейти:  
cron