Начать новую тему Ответить на тему
Статистика раздачи
Размер: 313.61 МБ | Добавлен: 26 мар 2019, 20:33 | Скачали: 0
Сидеров: 1  [0 байт/сек]    Личеров: 1  [0 байт/сек]
Пред. тема | След. тема 

Автор
Сообщение

СообщениеДобавлено: 26 мар 2019, 20:33 

Ответить с цитатой 

The Asteroids Galaxy Tour / Bring Us Together
Жанр: Alternative, Pop Rock, Indie
Носитель: CD
Год издания: 2014
Издатель (лейбл): Hot Bus Records
Страна исполнителя (группы): Denmark
Аудиокодек: FLAC (*.flac)
Тип рипа: tracks+.cue
Битрейт аудио: lossless
Продолжительность: 44:38
Источник (релизер): what.cd
Наличие сканов в содержимом раздачи: нет
Треклист:
01. Bring Us Together (04:19)
02. Navigator (05:09)
03. My Club (03:49)
04. Get Connected (03:46)
05. Choke It (05:15)
06. Hurricane (04:12)
07. Rock the Ride (04:11)
08. I Am the Mountain (05:31)
09. Zombies (04:48)
10. X (03:42)
http://www.theasteroidsgalaxytour.com/
https://en.wikipedia.org/wiki/The_Asteroids_Galaxy_Tour
Код:
Exact Audio Copy V1.0 beta 3 from 29. August 2011
EAC extraction logfile from 26. September 2014, 10:20
The Asteroids Galaxy Tour / Bring Us Together
Used drive  : DVDRW   SATA 24X24X12X   Adapter: 0  ID: 1
Read mode               : Secure
Utilize accurate stream : Yes
Defeat audio cache      : Yes
Make use of C2 pointers : No
Read offset correction                      : 48
Overread into Lead-In and Lead-Out          : No
Fill up missing offset samples with silence : Yes
Delete leading and trailing silent blocks   : No
Null samples used in CRC calculations       : Yes
Used interface                              : Native Win32 interface for Win NT & 2000
Gap handling                                : Appended to previous track
Used output format              : User Defined Encoder
Selected bitrate                : 1024 kBit/s
Quality                         : High
Add ID3 tag                     : No
Command line compressor         : C:\Program Files (x86)\Exact Audio Copy\Flac\flac.exe
Additional command line options : -8 -V -T "ARTIST=%artist%" -T "TITLE=%title%" -T "ALBUM=%albumtitle%" -T "DATE=%year%" -T "TRACKNUMBER=%tracknr%" -T "GENRE=%genre%" -T "PERFORMER=%albuminterpret%" -T "COMPOSER=%composer%" %haslyrics%--tag-from-file=LYRICS="%lyricsfile%"%haslyrics% -T "ALBUMARTIST=%albumartist%" -T "DISCNUMBER=%cdnumber%" -T "TOTALDISCS=%totalcds%" -T "TOTALTRACKS=%numtracks%" -T "COMMENT=%comment%" %source% -o %dest%
TOC of the extracted CD
     Track |   Start  |  Length  | Start sector | End sector
    ---------------------------------------------------------
        1  |  0:00.00 |  4:05.20 |         0    |    18394
        2  |  4:05.20 |  5:09.23 |     18395    |    41592
        3  |  9:14.43 |  3:49.37 |     41593    |    58804
        4  | 13:04.05 |  3:46.62 |     58805    |    75816
        5  | 16:50.67 |  5:15.71 |     75817    |    99512
        6  | 22:06.63 |  4:12.29 |     99513    |   118441
        7  | 26:19.17 |  4:11.31 |    118442    |   137297
        8  | 30:30.48 |  5:31.21 |    137298    |   162143
        9  | 36:01.69 |  4:48.35 |    162144    |   183778
       10  | 40:50.29 |  3:43.51 |    183779    |   200554
Track  1
     Filename I:\Music\RIPPED\The Asteroids Galaxy Tour - Bring Us Together\01 - Bring us together.wav
     Pre-gap length  0:00:02.00
     Peak level 100.0 %
     Extraction speed 2.3 X
     Track quality 100.0 %
     Test CRC DA94755F
     Copy CRC DA94755F
     Track not present in AccurateRip database
     Copy OK
Track  2
     Filename I:\Music\RIPPED\The Asteroids Galaxy Tour - Bring Us Together\02 - Navigator.wav
     Peak level 100.0 %
     Extraction speed 2.7 X
     Track quality 100.0 %
     Test CRC E5897FE1
     Copy CRC E5897FE1
     Track not present in AccurateRip database
     Copy OK
Track  3
     Filename I:\Music\RIPPED\The Asteroids Galaxy Tour - Bring Us Together\03 - My club.wav
     Peak level 100.0 %
     Extraction speed 2.8 X
     Track quality 100.0 %
     Test CRC B0FADB96
     Copy CRC B0FADB96
     Track not present in AccurateRip database
     Copy OK
Track  4
     Filename I:\Music\RIPPED\The Asteroids Galaxy Tour - Bring Us Together\04 - Get connected.wav
     Peak level 100.0 %
     Extraction speed 3.0 X
     Track quality 100.0 %
     Test CRC 8D55721C
     Copy CRC 8D55721C
     Track not present in AccurateRip database
     Copy OK
Track  5
     Filename I:\Music\RIPPED\The Asteroids Galaxy Tour - Bring Us Together\05 - Choke it.wav
     Peak level 100.0 %
     Extraction speed 3.4 X
     Track quality 100.0 %
     Test CRC A6AC14ED
     Copy CRC A6AC14ED
     Track not present in AccurateRip database
     Copy OK
Track  6
     Filename I:\Music\RIPPED\The Asteroids Galaxy Tour - Bring Us Together\06 - Hurricane.wav
     Peak level 100.0 %
     Extraction speed 3.5 X
     Track quality 100.0 %
     Test CRC 06C5FC15
     Copy CRC 06C5FC15
     Track not present in AccurateRip database
     Copy OK
Track  7
     Filename I:\Music\RIPPED\The Asteroids Galaxy Tour - Bring Us Together\07 - Rock the ride.wav
     Peak level 100.0 %
     Extraction speed 3.7 X
     Track quality 100.0 %
     Test CRC 63E795F9
     Copy CRC 63E795F9
     Track not present in AccurateRip database
     Copy OK
Track  8
     Filename I:\Music\RIPPED\The Asteroids Galaxy Tour - Bring Us Together\08 - I am the mountain.wav
     Peak level 100.0 %
     Extraction speed 4.1 X
     Track quality 100.0 %
     Test CRC B62168FD
     Copy CRC B62168FD
     Track not present in AccurateRip database
     Copy OK
Track  9
     Filename I:\Music\RIPPED\The Asteroids Galaxy Tour - Bring Us Together\09 - Zombies.wav
     Peak level 100.0 %
     Extraction speed 3.7 X
     Track quality 99.9 %
     Test CRC C2A72B50
     Copy CRC C2A72B50
     Track not present in AccurateRip database
     Copy OK
Track 10
     Filename I:\Music\RIPPED\The Asteroids Galaxy Tour - Bring Us Together\10 - X.wav
     Peak level 100.0 %
     Extraction speed 4.2 X
     Track quality 100.0 %
     Test CRC FDF6D6D3
     Copy CRC FDF6D6D3
     Track not present in AccurateRip database
     Copy OK
None of the tracks are present in the AccurateRip database
No errors occurred
End of status report
---- CUETools DB Plugin V2.1.3
[CTDB TOCID: OCf5V3L5hdK_sAofMXijIrfF6nE-] found, Submit result: OCf5V3L5hdK_sAofMXijIrfF6nE- has been confirmed
[9318d76f] (2/2) Accurately ripped
==== Log checksum B31E92E91FD9C2350AEB75E3214CBF1AD292CBAA18DBA517BE216B0582D3FC20 ====
Код:
REM GENRE Alternative
REM DATE 2014
REM DISCID 7C0A720A
REM COMMENT "ExactAudioCopy v1.0b3"
PERFORMER "The Asteroids Galaxy Tour"
TITLE "Bring Us Together"
FILE "01 - Bring us together.wav" WAVE
  TRACK 01 AUDIO
    TITLE "Bring us together"
    PERFORMER "The Asteroids Galaxy Tour"
    ISRC UK7FJ1400001
    INDEX 01 00:00:00
FILE "02 - Navigator.wav" WAVE
  TRACK 02 AUDIO
    TITLE "Navigator"
    PERFORMER "The Asteroids Galaxy Tour"
    ISRC UK7FJ1400002
    INDEX 01 00:00:00
FILE "03 - My club.wav" WAVE
  TRACK 03 AUDIO
    TITLE "My club"
    PERFORMER "The Asteroids Galaxy Tour"
    ISRC UK7FJ1400003
    INDEX 01 00:00:00
FILE "04 - Get connected.wav" WAVE
  TRACK 04 AUDIO
    TITLE "Get connected"
    PERFORMER "The Asteroids Galaxy Tour"
    ISRC UK7FJ1400004
    INDEX 01 00:00:00
FILE "05 - Choke it.wav" WAVE
  TRACK 05 AUDIO
    TITLE "Choke it"
    PERFORMER "The Asteroids Galaxy Tour"
    ISRC UK7FJ1400005
    INDEX 01 00:00:00
FILE "06 - Hurricane.wav" WAVE
  TRACK 06 AUDIO
    TITLE "Hurricane"
    PERFORMER "The Asteroids Galaxy Tour"
    ISRC UK7FJ1400006
    INDEX 01 00:00:00
FILE "07 - Rock the ride.wav" WAVE
  TRACK 07 AUDIO
    TITLE "Rock the ride"
    PERFORMER "The Asteroids Galaxy Tour"
    ISRC UK7FJ1400007
    INDEX 01 00:00:00
FILE "08 - I am the mountain.wav" WAVE
  TRACK 08 AUDIO
    TITLE "I am the mountain"
    PERFORMER "The Asteroids Galaxy Tour"
    ISRC UK7FJ1400008
    INDEX 01 00:00:00
FILE "09 - Zombies.wav" WAVE
  TRACK 09 AUDIO
    TITLE "Zombies"
    PERFORMER "The Asteroids Galaxy Tour"
    ISRC UK7FJ1400009
    INDEX 01 00:00:00
FILE "10 - X.wav" WAVE
  TRACK 10 AUDIO
    TITLE "X"
    PERFORMER "The Asteroids Galaxy Tour"
    ISRC UK7FJ1400010
    INDEX 01 00:00:00
Правила, инструкции, FAQ!!!
Торрент  Добавлен [26 мар 2019, 20:33] Скачать торрент Магнет ссылка
Скачать торрент
[ Размер 13.41 КБ / Просмотров 3 ]

Статус
Проверен 
 
Размер  313.61 МБ
Приватный: Нет (DHT включён)
.torrent скачан  0
 


     Отправить личное сообщение
   
Страница 1 из 1
Показать сообщения за:  Поле сортировки  
Начать новую тему Ответить на тему


Сейчас этот форум просматривают: нет зарегистрированных пользователей и гости: 0


Вы не можете начинать темы
Вы не можете отвечать на сообщения
Вы не можете редактировать свои сообщения
Вы не можете удалять свои сообщения
Вы не можете добавлять вложения

Перейти:  
cron
cron