Начать новую тему Ответить на тему
Статистика раздачи
Размер: 231.98 МБ | Добавлен: 26 мар 2019, 20:04 | Скачали: 0
Сидеров: 0  [0 байт/сек]    Личеров: 0  [0 байт/сек]
Пред. тема | След. тема 

Автор
Сообщение

СообщениеДобавлено: 26 мар 2019, 20:04 

Ответить с цитатой 

Lloyd Cole / Broken Record
Жанр: Alternative Pop/Rock, Indie Rock
Страна-производитель диска: EU
Год издания диска: 2010
Издатель (лейбл): tapaterecords
Номер по каталогу: LC12227
Страна: USA
Аудио кодек: FLAC (*.flac)
Тип рипа: image+.cue
Битрейт аудио: lossless
Продолжительность: 00:34:58
Источник (релизер): Оригинальный СД
Наличие сканов в содержимом раздачи: да
Треклист:
01 - Like A Broken Record
02 - Writers Retreat
03 - The Flipside
04 - Why In The World?
05 - Westchester County Jail
06 - If I Were A Song
07 - That's Alright
08 - Oh Genevieve
09 - Man Overboard
10 - Rhinestones
11 - Double Happiness
Код:
Exact Audio Copy V0.99 prebeta 5 from 4. May 2009
EAC extraction logfile from 29. September 2010, 12:02
Lloyd Cole / Broken Record
Used drive  : SONY    DVD RW DRU-800A   Adapter: 0  ID: 0
Read mode               : Secure
Utilize accurate stream : Yes
Defeat audio cache      : Yes
Make use of C2 pointers : No
Read offset correction                      : 12
Overread into Lead-In and Lead-Out          : No
Fill up missing offset samples with silence : Yes
Delete leading and trailing silent blocks   : No
Null samples used in CRC calculations       : Yes
Used interface                              : Native Win32 interface for Win NT & 2000
Used output format : Internal WAV Routines
Sample format      : 44.100 Hz; 16 Bit; Stereo
TOC of the extracted CD
     Track |   Start  |  Length  | Start sector | End sector
    ---------------------------------------------------------
        1  |  0:00.00 |  3:18.10 |         0    |    14859
        2  |  3:18.10 |  3:03.40 |     14860    |    28624
        3  |  6:21.50 |  4:02.65 |     28625    |    46839
        4  | 10:24.40 |  2:50.17 |     46840    |    59606
        5  | 13:14.57 |  2:22.30 |     59607    |    70286
        6  | 15:37.12 |  3:47.38 |     70287    |    87349
        7  | 19:24.50 |  3:56.32 |     87350    |   105081
        8  | 23:21.07 |  3:35.33 |    105082    |   121239
        9  | 26:56.40 |  2:44.07 |    121240    |   133546
       10  | 29:40.47 |  2:15.43 |    133547    |   143714
       11  | 31:56.15 |  3:02.37 |    143715    |   157401
Range status and errors
Selected range
     Filename Z:\wav\Lloyd Cole - Broken Record.wav
     Peak level 100.0 %
     Range quality 100.0 %
     Copy CRC 29B86EAE
     Copy OK
No errors occurred
End of status report
Код:
REM GENRE Indie
REM DATE 2010
REM DISCID 9608320B
REM COMMENT "ExactAudioCopy v0.99pb5"
PERFORMER "Lloyd Cole"
TITLE "Broken Record"
FILE "Lloyd Cole - Broken Record.wav" WAVE
  TRACK 01 AUDIO
    TITLE "Like A Broken Record"
    PERFORMER "Lloyd Cole"
    INDEX 01 00:00:00
  TRACK 02 AUDIO
    TITLE "Writers Retreat!"
    PERFORMER "Lloyd Cole"
    INDEX 01 03:18:10
  TRACK 03 AUDIO
    TITLE "The Flipside"
    PERFORMER "Lloyd Cole"
    INDEX 01 06:21:50
  TRACK 04 AUDIO
    TITLE "Why In The World?"
    PERFORMER "Lloyd Cole"
    INDEX 01 10:24:40
  TRACK 05 AUDIO
    TITLE "Westchester County Jail"
    PERFORMER "Lloyd Cole"
    INDEX 01 13:14:57
  TRACK 06 AUDIO
    TITLE "If I Were A Song"
    PERFORMER "Lloyd Cole"
    INDEX 01 15:37:12
  TRACK 07 AUDIO
    TITLE "That's Alright"
    PERFORMER "Lloyd Cole"
    INDEX 00 19:24:37
    INDEX 01 19:24:50
  TRACK 08 AUDIO
    TITLE "Oh Genevieve"
    PERFORMER "Lloyd Cole"
    INDEX 01 23:21:07
  TRACK 09 AUDIO
    TITLE "Man Overboard"
    PERFORMER "Lloyd Cole"
    INDEX 01 26:56:40
  TRACK 10 AUDIO
    TITLE "Rhinestones"
    PERFORMER "Lloyd Cole"
    INDEX 01 29:40:47
  TRACK 11 AUDIO
    TITLE "Double Happiness"
    PERFORMER "Lloyd Cole"
    INDEX 01 31:56:15
Доп. информация: 2010 release from the New York-based Scottish singer/songwriter. Broken Record finds Cole returning with a fully fledged band and a stunning new recording that marks a departure from his more recent lo-fi singer/songwriter albums, delivering instead a fully fleshed-out, Rock record.
Правила, инструкции, FAQ!!!
Торрент  Добавлен [26 мар 2019, 20:04] Скачать торрент Магнет ссылка
Скачать торрент
[ Размер 18.85 КБ / Просмотров 2 ]

Статус
Проверен 
 
Размер  231.98 МБ
Приватный: Нет (DHT включён)
.torrent скачан  0
 


     Отправить личное сообщение
   
Страница 1 из 1
Показать сообщения за:  Поле сортировки  
Начать новую тему Ответить на тему


Сейчас этот форум просматривают: нет зарегистрированных пользователей и гости: 0


Вы не можете начинать темы
Вы не можете отвечать на сообщения
Вы не можете редактировать свои сообщения
Вы не можете удалять свои сообщения
Вы не можете добавлять вложения

Перейти:  
cron