Начать новую тему Ответить на тему
Статистика раздачи
Размер: 274.43 МБ | Добавлен: 28 апр 2020, 19:55 | Скачали: 0
Сидеров: 0  [0 байт/сек]    Личеров: 0  [0 байт/сек]
Пред. тема | След. тема 

Автор
Сообщение

СообщениеДобавлено: 28 апр 2020, 19:55 

Ответить с цитатой 

Trashmonk / Mona Lisa Overdrive
Жанр: Alternative Pop/Rock, Indie, Art Rock, Brit Pop
Носитель: CD
Страна-производитель диска (релиза): G.B.
Год издания: 1999
Издатель (лейбл): Creation Records
Номер по каталогу: CRECD 212
Страна исполнителя (группы): England
Аудиокодек: FLAC (*.flac)
Тип рипа: image+.cue
Продолжительность: 00:58:34
Источник: собственный рип
Наличие сканов в содержимом раздачи: да
Треклист:
01. Girl I Used 2 Know
02. Polygamy
03. Sapphire
04. High Times
05. Amaryllis
06. All Change
07. Inner Brownstone Symphony
08. N.W.O.
09. It Won't Be Long
10. Dying Day
11. On The Way Home
Код:
Exact Audio Copy V1.5 from 20. February 2020
EAC extraction logfile from 25. April 2020, 12:44
Trashmonk / Mona Lisa Overdrive
Used drive  : ASUS    BW-16D1H-U   Adapter: 1  ID: 0
Read mode               : Secure
Utilize accurate stream : Yes
Defeat audio cache      : Yes
Make use of C2 pointers : No
Read offset correction                      : 6
Overread into Lead-In and Lead-Out          : No
Fill up missing offset samples with silence : Yes
Delete leading and trailing silent blocks   : No
Null samples used in CRC calculations       : Yes
Used interface                              : Native Win32 interface for Win NT & 2000
Used output format              : User Defined Encoder
Selected bitrate                : 768 kBit/s
Quality                         : High
Add ID3 tag                     : No
Command line compressor         : C:\Program Files (x86)\Exact Audio Copy\FLAC\FLAC.EXE
Additional command line options : -8 -V -T "TITLE=%title%" -T "ARTIST=%artist%" -T "ALBUMARTIST=%albumartist%" -T "ALBUM=%albumtitle%" -T "DATE=%year%" -T "TRACKNUMBER=%tracknr%" -T "TRACKTOTAL=%numtracks%" -T "GENRE=%genre%" -T "COMMENT=%comment%" -T "PERFORMER=%albuminterpret%" -T "COMPOSER=%composer%" %source% -o %dest%
TOC of the extracted CD
     Track |   Start  |  Length  | Start sector | End sector
    ---------------------------------------------------------
        1  |  0:00.00 |  4:13.22 |         0    |    18996
        2  |  4:13.22 |  7:07.05 |     18997    |    51026
        3  | 11:20.27 |  3:54.23 |     51027    |    68599
        4  | 15:14.50 |  3:36.25 |     68600    |    84824
        5  | 18:51.00 |  3:47.00 |     84825    |   101849
        6  | 22:38.00 |  5:36.52 |    101850    |   127101
        7  | 28:14.52 |  3:09.05 |    127102    |   141281
        8  | 31:23.57 |  4:50.15 |    141282    |   163046
        9  | 36:13.72 |  4:48.63 |    163047    |   184709
       10  | 41:02.60 |  4:06.32 |    184710    |   203191
       11  | 45:09.17 | 13:24.63 |    203192    |   263554
Range status and errors
Selected range
     Filename H:\Trashmonk - Mona Lisa Overdrive (1999)\Trashmonk - Mona Lisa Overdrive.wav
     Peak level 96.6 %
     Extraction speed 7.3 X
     Range quality 100.0 %
     Test CRC 17162D62
     Copy CRC 17162D62
     Copy OK
No errors occurred
AccurateRip summary
Track  1  accurately ripped (confidence 10)  [AC258913]  (AR v2)
Track  2  accurately ripped (confidence 10)  [984EC2E3]  (AR v2)
Track  3  accurately ripped (confidence 10)  [BE265642]  (AR v2)
Track  4  accurately ripped (confidence 10)  [46E7299B]  (AR v2)
Track  5  accurately ripped (confidence 10)  [6C5511CB]  (AR v2)
Track  6  accurately ripped (confidence 10)  [45F7DE38]  (AR v2)
Track  7  accurately ripped (confidence 10)  [5E79F2A4]  (AR v2)
Track  8  accurately ripped (confidence 10)  [9954AE41]  (AR v2)
Track  9  accurately ripped (confidence 10)  [E553F5E4]  (AR v2)
Track 10  accurately ripped (confidence 10)  [CCC639B9]  (AR v2)
Track 11  accurately ripped (confidence 10)  [567FB49B]  (AR v2)
All tracks accurately ripped
End of status report
---- CUETools DB Plugin V2.1.6
[CTDB TOCID: ZEP47wINyd2US.WxOA11.9Bhifs-] found
Submit result: ZEP47wINyd2US.WxOA11.9Bhifs- has been confirmed
Track | CTDB Status
  1   | (23/23) Accurately ripped
  2   | (23/23) Accurately ripped
  3   | (23/23) Accurately ripped
  4   | (23/23) Accurately ripped
  5   | (23/23) Accurately ripped
  6   | (23/23) Accurately ripped
  7   | (23/23) Accurately ripped
  8   | (23/23) Accurately ripped
  9   | (23/23) Accurately ripped
 10   | (23/23) Accurately ripped
 11   | (23/23) Accurately ripped
==== Log checksum 641C41E510AADFCA7E24E1BAA210D869041E521A890B9A6E793593EE3C2C4560 ====
Код:
REM DATE 1999
REM DISCID 960DBA0B
REM COMMENT "ExactAudioCopy v1.5"
PERFORMER "Trashmonk"
TITLE "Mona Lisa Overdrive"
REM COMPOSER "Trashmonk"
FILE "Trashmonk - Mona Lisa Overdrive.flac" WAVE
  TRACK 01 AUDIO
    TITLE "Girl I Used 2 Know"
    PERFORMER "Trashmonk"
    REM COMPOSER "Trashmonk"
    INDEX 01 00:00:00
  TRACK 02 AUDIO
    TITLE "Polygamy"
    PERFORMER "Trashmonk"
    REM COMPOSER "Trashmonk"
    INDEX 01 04:13:22
  TRACK 03 AUDIO
    TITLE "Sapphire"
    PERFORMER "Trashmonk"
    REM COMPOSER "Trashmonk"
    INDEX 01 11:20:27
  TRACK 04 AUDIO
    TITLE "High Times"
    PERFORMER "Trashmonk"
    REM COMPOSER "Trashmonk"
    INDEX 01 15:14:50
  TRACK 05 AUDIO
    TITLE "Amaryllis"
    PERFORMER "Trashmonk"
    REM COMPOSER "Trashmonk"
    INDEX 00 18:49:22
    INDEX 01 18:51:00
  TRACK 06 AUDIO
    TITLE "All Change"
    PERFORMER "Trashmonk"
    REM COMPOSER "Trashmonk"
    INDEX 01 22:38:00
  TRACK 07 AUDIO
    TITLE "Inner Brownstone Symphony"
    PERFORMER "Trashmonk"
    REM COMPOSER "Trashmonk"
    INDEX 01 28:14:52
  TRACK 08 AUDIO
    TITLE "N.W.O."
    PERFORMER "Trashmonk"
    REM COMPOSER "Trashmonk"
    INDEX 01 31:23:57
  TRACK 09 AUDIO
    TITLE "It Won't Be Long"
    PERFORMER "Trashmonk"
    REM COMPOSER "Trashmonk"
    INDEX 01 36:13:72
  TRACK 10 AUDIO
    TITLE "Dying Day"
    PERFORMER "Trashmonk"
    REM COMPOSER "Trashmonk"
    INDEX 01 41:02:60
  TRACK 11 AUDIO
    TITLE "On The Way Home"
    PERFORMER "Trashmonk"
    REM COMPOSER "Trashmonk"
    INDEX 00 45:07:57
    INDEX 01 45:09:17
Правила, инструкции, FAQ!!!
Торрент  Добавлен [28 апр 2020, 19:55] Скачать торрент Магнет ссылка
Скачать торрент
[ Размер 22.75 КБ / Просмотров 11 ]

Статус
Проверен 
 
Размер  274.43 МБ
Приватный: Нет (DHT включён)
.torrent скачан  0
 


     Отправить личное сообщение
   
Страница 1 из 1
Показать сообщения за:  Поле сортировки  
Начать новую тему Ответить на тему


Сейчас этот форум просматривают: нет зарегистрированных пользователей и гости: 0


Вы не можете начинать темы
Вы не можете отвечать на сообщения
Вы не можете редактировать свои сообщения
Вы не можете удалять свои сообщения
Вы не можете добавлять вложения

Перейти:  
cron