Начать новую тему Ответить на тему
Статистика раздачи
Размер: 325.89 МБ | Добавлен: 26 мар 2019, 19:32 | Скачали: 0
Сидеров: 0  [0 байт/сек]    Личеров: 0  [0 байт/сек]
Пред. тема | След. тема 

Автор
Сообщение

СообщениеДобавлено: 26 мар 2019, 19:32 

Ответить с цитатой 

Dispatch - Who Are We Living For?
Жанр: Alternative Pop/Rock
Год выпуска диска: 2000
Производитель диска: USA
Аудио кодек: APE
Тип рипа: image+.cue
Битрейт аудио: lossless
Продолжительность: 51:53
Трэклист:
1. Everybody Clap
2. Open Up
3. Just Like Larry
4. Time Served
5. Even
6. Passer By
7. Carry You
8. D. Bits
9. How Now
10. Lightning
11. Granite
12. Prince of Spades
13. Parade Speed
14. Headlights
15. Blood
16. 10 Ft, 5 Ft, Bag 'Em
17. Douggie Mayu's
Доп. информация:
Код:
Exact Audio Copy V0.99 prebeta 4 from 23. January 2008
Отчёт EAC об извлечении, выполненном 24. августа 2009, 14:22
Dispatch / Who Are We Living For?
Дисковод: Optiarc DVD RW AD-7200S   Adapter: 0  ID: 1
Режим чтения                 : Достоверность
Использование точного потока : Да
Отключение кэша аудио        : Да
Использование указателей C2  : Нет
Коррекция смещения при чтении                     : 48
Способность читать области Lead-in и Lead-out     : Нет
Заполнение пропущенных сэмплов тишиной            : Да
Удаление блоков с тишиной в начале и конце        : Нет
При вычислениях CRC использовались нулевые сэмплы : Да
Интерфейс                                         : Установленный внешний ASPI-интерфейс
Выходной формат : Внутренние WAV-операции
Формат сэмплов  : 44.100 Гц; 16 бит; стерео
TOC извлечённого CD
     Трек |   Старт  | Длительность | Начальный сектор | Конечный сектор
    ---------------------------------------------------------------------
       1  |  0:00.00 |    1:50.70   |           0      |       8319
       2  |  1:50.70 |    4:46.37   |        8320      |      29806
       3  |  6:37.32 |    2:10.05   |       29807      |      39561
       4  |  8:47.37 |    3:07.63   |       39562      |      53649
       5  | 11:55.25 |    4:40.35   |       53650      |      74684
       6  | 16:35.60 |    3:54.35   |       74685      |      92269
       7  | 20:30.20 |    3:11.40   |       92270      |     106634
       8  | 23:41.60 |    1:34.52   |      106635      |     113736
       9  | 25:16.37 |    2:38.70   |      113737      |     125656
      10  | 27:55.32 |    4:47.38   |      125657      |     147219
      11  | 32:42.70 |    2:31.17   |      147220      |     158561
      12  | 35:14.12 |    3:54.00   |      158562      |     176111
      13  | 39:08.12 |    1:39.35   |      176112      |     183571
      14  | 40:47.47 |    4:22.03   |      183572      |     203224
      15  | 45:09.50 |    3:06.52   |      203225      |     217226
      16  | 48:16.27 |    2:16.73   |      217227      |     227499
      17  | 50:33.25 |    1:19.55   |      227500      |     233479
Характеристики диапазона извлечения и сообщения об ошибках
Выбранный диапазон
     Имя файла D:\Downloads\download\Dispatch - Who Are We Living For\Dispatch - Who Are We Living For.wav
     Пиковый уровень 99.8 %
     Качество диапазона 100.0 %
     CRC копии 56715947
     Копирование... OK
Ошибок не произошло
AccurateRip: сводка
Трек  1  точное извлечение (доверие 5)  [CBC4EE22]
Трек  2  точное извлечение (доверие 4)  [1F1054CC]
Трек  3  точное извлечение (доверие 5)  [42C79309]
Трек  4  точное извлечение (доверие 5)  [900A250A]
Трек  5  точное извлечение (доверие 5)  [D5A57575]
Трек  6  точное извлечение (доверие 5)  [2C78AAB2]
Трек  7  точное извлечение (доверие 5)  [49F68CA2]
Трек  8  точное извлечение (доверие 5)  [488B2721]
Трек  9  точное извлечение (доверие 5)  [43F9067C]
Трек 10  точное извлечение (доверие 5)  [CF2AF30E]
Трек 11  точное извлечение (доверие 5)  [E7622FF7]
Трек 12  точное извлечение (доверие 5)  [ABB20BFA]
Трек 13  точное извлечение (доверие 5)  [55764B31]
Трек 14  точное извлечение (доверие 5)  [665D4F9E]
Трек 15  точное извлечение (доверие 5)  [49704B68]
Трек 16  точное извлечение (доверие 5)  [E156E2F0]
Трек 17  точное извлечение (доверие 5)  [CA187E4D]
Все треки извлечены точно
Конец отчёта
Label: Bomber Records
Catalog#: 8375
Правила, инструкции, FAQ!!!
Торрент  Добавлен [26 мар 2019, 19:32] Скачать торрент Магнет ссылка
Скачать торрент
[ Размер 13.36 КБ / Просмотров 0 ]

Статус
Проверен 
 
Размер  325.89 МБ
Приватный: Нет (DHT включён)
.torrent скачан  0
 


     Отправить личное сообщение
   
Страница 1 из 1
Показать сообщения за:  Поле сортировки  
Начать новую тему Ответить на тему


Сейчас этот форум просматривают: нет зарегистрированных пользователей и гости: 0


Вы не можете начинать темы
Вы не можете отвечать на сообщения
Вы не можете редактировать свои сообщения
Вы не можете удалять свои сообщения
Вы не можете добавлять вложения

Перейти:  
cron
cron