Начать новую тему Ответить на тему
Статистика раздачи
Размер: 231.07 МБ | Добавлен: 26 мар 2019, 19:32 | Скачали: 0
Сидеров: 0  [0 байт/сек]    Личеров: 0  [0 байт/сек]
Пред. тема | След. тема 

Автор
Сообщение

СообщениеДобавлено: 26 мар 2019, 19:32 

Ответить с цитатой 

Dispatch - Bang Bang
Жанр: Alternative Pop/Rock
Год выпуска диска: 2000
Производитель диска: USA
Аудио кодек: APE
Тип рипа: image+.cue
Битрейт аудио: lossless
Продолжительность: 40:00
Трэклист:
1. Here We Go
2. Bats in the Belfry
3. General, The
4. Bang Bang
5. Mission
6. Drive
7. Two Coins
8. Railway
9. Whirlwind
10. Out Loud
Доп. информация:
Код:
Exact Audio Copy V0.99 prebeta 4 from 23. January 2008
Отчёт EAC об извлечении, выполненном 2. июля 2009, 22:56
Dispatch / Bang Bang
Дисковод: Optiarc DVD RW AD-7200S   Adapter: 0  ID: 1
Режим чтения                 : Достоверность
Использование точного потока : Да
Отключение кэша аудио        : Да
Использование указателей C2  : Нет
Коррекция смещения при чтении                     : 48
Способность читать области Lead-in и Lead-out     : Нет
Заполнение пропущенных сэмплов тишиной            : Да
Удаление блоков с тишиной в начале и конце        : Нет
При вычислениях CRC использовались нулевые сэмплы : Да
Интерфейс                                         : Установленный внешний ASPI-интерфейс
Выходной формат : Внутренние WAV-операции
Формат сэмплов  : 44.100 Гц; 16 бит; стерео
TOC извлечённого CD
     Трек |   Старт  | Длительность | Начальный сектор | Конечный сектор
    ---------------------------------------------------------------------
       1  |  0:00.00 |    4:40.42   |           0      |      21041
       2  |  4:40.42 |    4:06.15   |       21042      |      39506
       3  |  8:46.57 |    4:06.60   |       39507      |      58016
       4  | 12:53.42 |    4:28.00   |       58017      |      78116
       5  | 17:21.42 |    4:06.38   |       78117      |      96604
       6  | 21:28.05 |    2:59.10   |       96605      |     110039
       7  | 24:27.15 |    3:06.35   |      110040      |     124024
       8  | 27:33.50 |    4:07.37   |      124025      |     142586
       9  | 31:41.12 |    4:56.30   |      142587      |     164816
      10  | 36:37.42 |    3:22.13   |      164817      |     179979
Характеристики диапазона извлечения и сообщения об ошибках
Выбранный диапазон
     Имя файла D:\Downloads\download\Dispatch - Bang Bang\Dispatch - Bang Bang.wav
     Пиковый уровень 96.6 %
     Качество диапазона 100.0 %
     CRC копии D94269EF
     Копирование... OK
Ошибок не произошло
AccurateRip: сводка
Трек  1  точное извлечение (доверие 3)  [E3F8A9D6]
Трек  2  точное извлечение (доверие 3)  [442F0957]
Трек  3  точное извлечение (доверие 3)  [B63346EB]
Трек  4  точное извлечение (доверие 3)  [9838C840]
Трек  5  точное извлечение (доверие 3)  [44B2B1EA]
Трек  6  точное извлечение (доверие 3)  [F6E6A457]
Трек  7  точное извлечение (доверие 3)  [8B53F0B9]
Трек  8  точное извлечение (доверие 3)  [92514B61]
Трек  9  точное извлечение (доверие 3)  [9C88F9B0]
Трек 10  точное извлечение (доверие 3)  [8EEB195C]
Все треки извлечены точно
Конец отчёта
Label: Bomber Records
Catalog#: 8373
Правила, инструкции, FAQ!!!
Торрент  Добавлен [26 мар 2019, 19:32] Скачать торрент Магнет ссылка
Скачать торрент
[ Размер 18.63 КБ / Просмотров 0 ]

Статус
Проверен 
 
Размер  231.07 МБ
Приватный: Нет (DHT включён)
.torrent скачан  0
 


     Отправить личное сообщение
   
Страница 1 из 1
Показать сообщения за:  Поле сортировки  
Начать новую тему Ответить на тему


Сейчас этот форум просматривают: нет зарегистрированных пользователей и гости: 0


Вы не можете начинать темы
Вы не можете отвечать на сообщения
Вы не можете редактировать свои сообщения
Вы не можете удалять свои сообщения
Вы не можете добавлять вложения

Перейти:  
cron
cron