Начать новую тему Ответить на тему
Статистика раздачи
Размер: 329.37 МБ | Добавлен: 26 мар 2019, 19:17 | Скачали: 0
Сидеров: 0  [0 байт/сек]    Личеров: 0  [0 байт/сек]
Пред. тема | След. тема 

Автор
Сообщение

СообщениеДобавлено: 26 мар 2019, 19:17 

Ответить с цитатой 

Amanda Marshall - Amanda Marshall
Жанр: Alternative Pop/ Rock
Год выпуска диска
: 1995
Производитель диска: Canada (Sony)
Аудио кодек: FLAC
Тип рипа: image+.cue
Битрейт аудио: lossless
Продолжительность: 0:49:30
01. Let it rain 04:32
02. Birmingham 05:21
03. Fall from grace 04:20
04. Dark horse 05:37
05. Beautiful goodbye 05:17
06. Sitting on top of the world 04:20
07. Last exit to eden 05:24
08. Trust me (this is love) 04:59
09. Let's get lost 04:13
10. Promises 05:22
Bob Mann - Guitar (Acoustic), Guitar
Amanda Marshall - Vocals, Vocals (Background), Main Performer
Tim Pierce - Guitar (Acoustic), Guitar, Guitar (Electric)
Dave Tyson - Keyboards, Programming, Producer, Vocals (Background)
Tom "T-Bone" Wolk - Accordion
David Wipper - Guitar (Acoustic), Guitar, Mandolin
Leland Sklar - Bass, Guitar (Bass)
David Tyson - Keyboards, Producer, Vocals (Background), Programming
Louis Taylor, Jr. - Sax (Soprano)
Kenny Aronoff - Percussion, Drums
Tommy Byrnes - Guitar (Electric)
Diana DeWitt - Vocals (Background)
Erika Duke-Kirkpartick - Cello
Peter Kent - Violin
Сканы внутри
Exact Audio Copy V0.99 prebeta 3 from 28. July 2007
EAC extraction logfile from 29. January 2009, 13:06
Amanda Marshall / Amanda Marshall
Used drive : TSSTcorpCDDVDW SE-S204N Adapter: 6 ID: 4
Read mode : Secure
Utilize accurate stream : Yes
Defeat audio cache : Yes
Make use of C2 pointers : No
Read offset correction : 6
Overread into Lead-In and Lead-Out : No
Fill up missing offset samples with silence : Yes
Delete leading and trailing silent blocks : No
Null samples used in CRC calculations : Yes
Used interface : Installed external ASPI interface
Used output format : User Defined Encoder
Selected bitrate : 768 kBit/s
Quality : High
Add ID3 tag : No
Command line compressor : H:\Program Files\Exact Audio Copy\FLAC\FLAC.EXE
Additional command line options : -6 -V -T "ARTIST=%a" -T "TITLE=%t" -T "ALBUM=%g" -T "DATE=%y" -T "TRACKNUMBER=%n" -T "GENRE=%m" -T "COMMENT=%e" %s -o %d
TOC of the extracted CD
Track | Start | Length | Start sector | End sector
---------------------------------------------------------
1 | 0:00.00 | 4:32.70 | 0 | 20469
2 | 4:32.70 | 5:21.27 | 20470 | 44571
3 | 9:54.22 | 4:20.30 | 44572 | 64101
4 | 14:14.52 | 5:37.50 | 64102 | 89426
5 | 19:52.27 | 5:17.10 | 89427 | 113211
6 | 25:09.37 | 4:20.03 | 113212 | 132714
7 | 29:29.40 | 5:24.65 | 132715 | 157079
8 | 34:54.30 | 4:59.55 | 157080 | 179559
9 | 39:54.10 | 4:13.72 | 179560 | 198606
10 | 44:08.07 | 5:22.20 | 198607 | 222776
Range status and errors
Selected range
Filename C:\TTT\Amanda Marshall - Amanda Marshall\Amanda Marshall - Amanda Marshall.wav
Peak level 100.0 %
Range quality 100.0 %
Test CRC DD06A084
Copy CRC DD06A084
Copy OK
No errors occurred
AccurateRip summary
Track 1 accurately ripped (confidence 43) [A6EFE677]
Track 2 accurately ripped (confidence 44) [05114199]
Track 3 accurately ripped (confidence 44) [F9BD9D0D]
Track 4 accurately ripped (confidence 44) [36F2DCEC]
Track 5 accurately ripped (confidence 44) [40767AE2]
Track 6 accurately ripped (confidence 44) [5277CEBE]
Track 7 accurately ripped (confidence 44) [48221ED8]
Track 8 accurately ripped (confidence 44) [79B0F594]
Track 9 accurately ripped (confidence 44) [24DEB498]
Track 10 accurately ripped (confidence 43) [A5F14D6E]
All tracks accurately ripped
End of status report
Правила, инструкции, FAQ!!!
Торрент  Добавлен [26 мар 2019, 19:17] Скачать торрент Магнет ссылка
Скачать торрент
[ Размер 13.72 КБ / Просмотров 2 ]

Статус
Проверен 
 
Размер  329.37 МБ
Приватный: Нет (DHT включён)
.torrent скачан  0
 


     Отправить личное сообщение
   
Страница 1 из 1
Показать сообщения за:  Поле сортировки  
Начать новую тему Ответить на тему


Сейчас этот форум просматривают: нет зарегистрированных пользователей и гости: 0


Вы не можете начинать темы
Вы не можете отвечать на сообщения
Вы не можете редактировать свои сообщения
Вы не можете удалять свои сообщения
Вы не можете добавлять вложения

Перейти:  
cron