Начать новую тему Ответить на тему
Статистика раздачи
Размер: 154.03 МБ | Добавлен: 26 мар 2019, 19:17 | Скачали: 0
Сидеров: 0  [0 байт/сек]    Личеров: 0  [0 байт/сек]
Пред. тема | След. тема 

Автор
Сообщение

СообщениеДобавлено: 26 мар 2019, 19:17 

Ответить с цитатой 

Alchemy III - Headrush
Жанр: Alternative Pop Rock
Носитель: CD
Страна-производитель диска (релиза): USA
Год издания: 2010
Издатель (лейбл): Cd Baby Records
Номер по каталогу: 5637642082
Страна исполнителя (группы): USA
Аудиокодек: FLAC (*.flac)
Тип рипа: image+.cue
Битрейт аудио: lossless
Продолжительность: 00:29:31
Источник (релизер): Sket4er
Наличие сканов в содержимом раздачи: да
Треклист:
01. Government Corruption
02. Headrush
03. Ratfink
04. Diamondback Rattledog
05. The Trees
06. Lazy Afternoon
07. Misunderstood
08. Walking on Water
09. Rollercoaster Ride
Код:
Exact Audio Copy V1.1 from 23. June 2015
EAC extraction logfile from 6. July 2018, 20:16
Alchemy III / Headrush
Used drive  : TSSTcorpCDDVDW SH-224DB   Adapter: 1  ID: 0
Read mode               : Secure
Utilize accurate stream : Yes
Defeat audio cache      : Yes
Make use of C2 pointers : No
Read offset correction                      : 6
Overread into Lead-In and Lead-Out          : No
Fill up missing offset samples with silence : Yes
Delete leading and trailing silent blocks   : No
Null samples used in CRC calculations       : Yes
Used interface                              : Native Win32 interface for Win NT & 2000
Used output format              : User Defined Encoder
Selected bitrate                : 1024 kBit/s
Quality                         : High
Add ID3 tag                     : No
Command line compressor         : C:\Program Files (x86)\Exact Audio Copy\win64\flac.exe
Additional command line options : -8 -V -T "ARTIST=%artist%" -T "TITLE=%title%" -T "ALBUM=%albumtitle%" -T "DATE=%year%" -T "TRACKNUMBER=%tracknr%" -T "GENRE=%genre%" -T "COMMENT=%comment%" %source% -o %dest%
TOC of the extracted CD
     Track |   Start  |  Length  | Start sector | End sector
    ---------------------------------------------------------
        1  |  0:00.00 |  4:11.51 |         0    |    18875
        2  |  4:11.51 |  2:50.24 |     18876    |    31649
        3  |  7:02.00 |  3:06.08 |     31650    |    45607
        4  | 10:08.08 |  3:14.41 |     45608    |    60198
        5  | 13:22.49 |  3:06.12 |     60199    |    74160
        6  | 16:28.61 |  3:17.74 |     74161    |    89009
        7  | 19:46.60 |  3:36.43 |     89010    |   105252
        8  | 23:23.28 |  3:30.63 |    105253    |   121065
        9  | 26:54.16 |  2:36.72 |    121066    |   132837
Range status and errors
Selected range
     Filename F:\Sket4er\Alchemy III - Headrush  2010\Alchemy III - Headrush.wav
     Peak level 100.0 %
     Extraction speed 2.7 X
     Range quality 100.0 %
     Test CRC 8EE5B95D
     Copy CRC 8EE5B95D
     Copy OK
No errors occurred
AccurateRip summary
Track  1  not present in database
Track  2  not present in database
Track  3  not present in database
Track  4  not present in database
Track  5  not present in database
Track  6  not present in database
Track  7  not present in database
Track  8  not present in database
Track  9  not present in database
None of the tracks are present in the AccurateRip database
End of status report
---- CUETools DB Plugin V2.1.6
[CTDB TOCID: UG8WKwa.rvUqJEEg68bBZf.zcoI-] disk not present in database
Submit result: UG8WKwa.rvUqJEEg68bBZf.zcoI- has been uploaded
==== Log checksum 02F0D79216BFFAFDFE52A11B573D5596A6799D7E087D185171FE907C703F4D35 ====
Код:
REM GENRE Rock
REM DATE 2010
REM DISCID 6506EB09
REM COMMENT "ExactAudioCopy v1.1"
PERFORMER "Alchemy III"
TITLE "Headrush"
FILE "Alchemy III - Headrush.flac" WAVE
  TRACK 01 AUDIO
    TITLE "Government Corruption"
    PERFORMER "Alchemy III"
    FLAGS DCP
    INDEX 01 00:00:00
  TRACK 02 AUDIO
    TITLE "Headrush"
    PERFORMER "Alchemy III"
    FLAGS DCP
    INDEX 01 04:11:51
  TRACK 03 AUDIO
    TITLE "Ratfink"
    PERFORMER "Alchemy III"
    FLAGS DCP
    INDEX 01 07:02:00
  TRACK 04 AUDIO
    TITLE "Diamondback Rattledog"
    PERFORMER "Alchemy III"
    FLAGS DCP
    INDEX 01 10:08:08
  TRACK 05 AUDIO
    TITLE "The Trees"
    PERFORMER "Alchemy III"
    FLAGS DCP
    INDEX 01 13:22:49
  TRACK 06 AUDIO
    TITLE "Lazy Afternoon"
    PERFORMER "Alchemy III"
    FLAGS DCP
    INDEX 01 16:28:61
  TRACK 07 AUDIO
    TITLE "Misunderstood"
    PERFORMER "Alchemy III"
    FLAGS DCP
    INDEX 01 19:46:60
  TRACK 08 AUDIO
    TITLE "Walking on Water"
    PERFORMER "Alchemy III"
    FLAGS DCP
    INDEX 01 23:23:28
  TRACK 09 AUDIO
    TITLE "Rollercoaster Ride"
    PERFORMER "Alchemy III"
    FLAGS DCP
    INDEX 01 26:54:16
Код:
-----------------------
DON'T MODIFY THIS FILE
-----------------------
PERFORMER: auCDtect Task Manager, ver. 1.5.1RC4 build 1.5.1.5
Copyright (c) 2008-2010 y-soft. All rights reserved
[url=http://y-soft.org]http://y-soft.org[/url]
ANALYZER: auCDtect: CD records authenticity detector, version 0.8.2
Copyright (c) 2004 Oleg Berngardt. All rights reserved.
Copyright (c) 2004 Alexander Djourik. All rights reserved.
FILE: Alchemy III - Headrush.flac
  Size: 159623340 Hash: 6BA0640F38EA5AB8ACBC2E3C5E652AD4 Accuracy: -m0
  Conclusion: MPEG 95%
  Signature: 8F85C8262218DEDFB47661B1557765873AED7015
[url=http://funkyimg.com/view/2Jpv4][img]http://funkyimg.com/p/2Jpv4.jpg[/img][/url]
Код:
foobar2000 1.3.9 / Замер динамического диапазона (DR) 1.1.1
Дата отчёта:  2018-07-12 13:39:20
--------------------------------------------------------------------------------
Анализ:   Alchemy III / Headrush
--------------------------------------------------------------------------------
DR         Пики         RMS           Продолжительность трека
--------------------------------------------------------------------------------
DR7       -2.37 дБ   -11.02 дБ      4:12 1-Government Corruption
DR10       0.00 дБ   -11.06 дБ      2:50 2-Headrush
DR10       0.00 дБ   -11.16 дБ      3:06 3-Ratfink
DR10       0.00 дБ   -11.05 дБ      3:15 4-Diamondback Rattledog
DR8        0.00 дБ   -11.07 дБ      3:06 5-The Trees
DR9        0.00 дБ   -11.05 дБ      3:18 6-Lazy Afternoon
DR9        0.00 дБ   -11.08 дБ      3:37 7-Misunderstood
DR8        0.00 дБ   -11.39 дБ      3:31 8-Walking on Water
DR10       0.00 дБ   -11.08 дБ      2:37 9-Rollercoaster Ride
--------------------------------------------------------------------------------
Количество треков: 9
Реальные значения DR: DR9
Частота:   44100 Гц
Каналов:   2
Разрядность:   16
Битрейт:   721 кбит/с
Кодек:   FLAC
================================================================================
Доп. информация
Ron Musselwhite - Drums and vocals
Jon Kaas - Guitar
Phillip Ivey - Bass
Born in Ontario Canada Ron Musselwhite's career in music began at he early age of twelve, when he was encouraged to follow in his father's footsteps and take up the drums. His talent on the drums and as a vocalist lead him to his first job in a band he formed called "The Emeralds" Headrush buy CD music. This talented group were in great demand to back up many recording artists from Detroit, during the 60's Headrush CD music. Over many years he had picked up the trumpet and fiddle as well, Also recording on Quality records, RCA records, Barry records, as well as many more independent recording labels Headrush album for sale. Ron Musselwhite has travelled throughout western Europe, England, The Mediterranean and North Africa Headrush songs. He has continued to work the North American club circuit in various show bands, playing drums, trumpet, fiddle and guitar Headrush buy CD music. Ron had gathered quite a following in the bands, "Music Machine", "The Quorum" and "White-wail" In 1984 he moved to Amarillo and released a country album which was recorded in NashvilleTennessee. After moving to Dickson County Tennessee in 1989 Ron built a recording studio and has just played off and on with pick up bands. Headrush album for sale by Alchemy 3 was released Oct 12, 2010 on the Cd Baby label.
https://www.cduniverse.com/productinfo.asp?pid=8355035
https://www.allmusic.com/album/headrush-mw0002043920
Правила, инструкции, FAQ!!!
Торрент  Добавлен [26 мар 2019, 19:17] Скачать торрент Магнет ссылка
Скачать торрент
[ Размер 12.81 КБ / Просмотров 0 ]

Статус
Проверен 
 
Размер  154.03 МБ
Приватный: Нет (DHT включён)
.torrent скачан  0
 


     Отправить личное сообщение
   
Страница 1 из 1
Показать сообщения за:  Поле сортировки  
Начать новую тему Ответить на тему


Сейчас этот форум просматривают: нет зарегистрированных пользователей и гости: 0


Вы не можете начинать темы
Вы не можете отвечать на сообщения
Вы не можете редактировать свои сообщения
Вы не можете удалять свои сообщения
Вы не можете добавлять вложения

Перейти:  
cron