Начать новую тему Ответить на тему
Статистика раздачи
Размер: 288.52 МБ | Добавлен: 01 янв 2020, 23:01 | Скачали: 1
Сидеров: 1  [0 байт/сек]    Личеров: 0  [0 байт/сек]
Пред. тема | След. тема 

Автор
Сообщение

СообщениеДобавлено: 01 янв 2020, 23:01 

Ответить с цитатой 

Camille / Camille - Ilo Veyou (2CD, FNAC Edition)
Жанр: Alternative Pop, Indie, Chanson
Год издания: 2011
Издатель (лейбл): EMI
Страна: France
Аудиокодек: FLAC (*.flac)
Тип рипа: tracks+.cue
Битрейт аудио: lossless
Продолжительность: 0:54:32 +0:14:59
Источник (релизер): zouxor
Наличие сканов в содержимом раздачи: нет
01. L'étourderie (intime) (1:37)
02. Babies know more than us (2:43)
03. Allez allez allez (a capella) (2:59)
04. She was (à la chapelle) (4:32)
05. Tout dit (avec les oiseaux) (3:08)
01. Aujourd'hui (1:14)
02. L'étourderie (2:01)
03. Allez allez allez (3:38)
04. Wet boy (2:28)
05. She was (4:37)
06. Mars is no fun (2:37)
07. Le berger (5:14)
08. Bubble lady (1:48)
09. Ilo veyou (1:43)
10. Message (0:49)
11. La France (3:05)
12. My man is married but not to me (2:16)
13. Pleasure (2:10)
14. Le banquet (2:49)
15. Tout dit (3:03)
01. L'étourderie (intime) (1:37)
02. Babies know more than us (2:43)
03. Allez allez allez (a capella) (2:59)
04. She was (à la chapelle) (4:32)
05. Tout dit (avec les oiseaux) (3:08)
Код:
Exact Audio Copy V1.0 beta 3 from 29. August 2011
EAC extraction logfile from 22. October 2011, 14:00
Camille / Ilo Veyou
Used drive  : Optiarc DVD RW AD-7240S   Adapter: 3  ID: 0
Read mode               : Secure
Utilize accurate stream : Yes
Defeat audio cache      : Yes
Make use of C2 pointers : No
Read offset correction                      : 48
Overread into Lead-In and Lead-Out          : No
Fill up missing offset samples with silence : Yes
Delete leading and trailing silent blocks   : No
Null samples used in CRC calculations       : Yes
Used interface                              : Native Win32 interface for Win NT & 2000
Gap handling                                : Appended to previous track
Used output format              : User Defined Encoder
Selected bitrate                : 1024 kBit/s
Quality                         : High
Add ID3 tag                     : No
Command line compressor         : C:\Program Files (x86)\FLAC\flac.exe
Additional command line options : -8 -V -T "ARTIST=%artist%" -T "TITLE=%title%" -T "ALBUM=%albumtitle%" -T "DATE=%year%" -T "TRACKNUMBER=%tracknr%" -T "GENRE=%genre%" -T "PERFORMER=%albuminterpret%" -T "COMPOSER=%composer%" %haslyrics%--tag-from-file=LYRICS="%lyricsfile%"%haslyrics% -T "ALBUMARTIST=%albumartist%" -T "DISCNUMBER=%cdnumber%" -T "TOTALDISCS=%totalcds%" -T "TOTALTRACKS=%numtracks%" -T "COMMENT=%comment%" %source% -o %dest%
TOC of the extracted CD
     Track |   Start  |  Length  | Start sector | End sector
    ---------------------------------------------------------
        1  |  0:00.00 |  1:14.02 |         0    |     5551
        2  |  1:14.02 |  2:00.68 |      5552    |    14619
        3  |  3:14.70 |  3:38.24 |     14620    |    30993
        4  |  6:53.19 |  2:28.07 |     30994    |    42100
        5  |  9:21.26 |  4:37.26 |     42101    |    62901
        6  | 13:58.52 |  2:37.01 |     62902    |    74677
        7  | 16:35.53 |  5:13.55 |     74678    |    98207
        8  | 21:49.33 |  1:47.41 |     98208    |   106273
        9  | 23:36.74 |  1:43.36 |    106274    |   114034
       10  | 25:20.35 |  0:48.70 |    114035    |   117704
       11  | 26:09.30 |  3:05.17 |    117705    |   131596
       12  | 29:14.47 |  2:15.44 |    131597    |   141765
       13  | 31:30.16 |  2:10.35 |    141766    |   151550
       14  | 33:40.51 |  2:49.02 |    151551    |   164227
       15  | 36:29.53 |  3:03.37 |    164228    |   177989
       16  | 42:05.15 |  6:40.17 |    189390    |   219406
Track  1
     Filename C:\Flac\01 Aujourd'hui.wav
     Pre-gap length  0:00:02.00
     Peak level 75.1 %
     Extraction speed 1.3 X
     Track quality 99.8 %
     Test CRC A840C481
     Copy CRC A840C481
     Track not present in AccurateRip database
     Copy OK
Track  2
     Filename C:\Flac\02 L'étourderie.wav
     Peak level 88.0 %
     Extraction speed 2.1 X
     Track quality 100.0 %
     Test CRC 6CFDB428
     Copy CRC 6CFDB428
     Track not present in AccurateRip database
     Copy OK
Track  3
     Filename C:\Flac\03 Allez allez allez.wav
     Peak level 100.0 %
     Extraction speed 2.5 X
     Track quality 100.0 %
     Test CRC D192E385
     Copy CRC D192E385
     Track not present in AccurateRip database
     Copy OK
Track  4
     Filename C:\Flac\04 Wet boy.wav
     Pre-gap length  0:00:01.06
     Peak level 100.0 %
     Extraction speed 2.5 X
     Track quality 100.0 %
     Test CRC F2D39794
     Copy CRC F2D39794
     Track not present in AccurateRip database
     Copy OK
Track  5
     Filename C:\Flac\05 She was.wav
     Peak level 100.0 %
     Extraction speed 3.0 X
     Track quality 100.0 %
     Test CRC 4F358FC6
     Copy CRC 4F358FC6
     Track not present in AccurateRip database
     Copy OK
Track  6
     Filename C:\Flac\06 Mars is no fun.wav
     Peak level 100.0 %
     Extraction speed 2.4 X
     Track quality 99.9 %
     Test CRC A45AE0EC
     Copy CRC A45AE0EC
     Track not present in AccurateRip database
     Copy OK
Track  7
     Filename C:\Flac\07 Le berger.wav
     Pre-gap length  0:00:02.49
     Peak level 91.0 %
     Extraction speed 3.1 X
     Track quality 99.9 %
     Test CRC 54EAC77C
     Copy CRC 54EAC77C
     Track not present in AccurateRip database
     Copy OK
Track  8
     Filename C:\Flac\08 Bubble lady.wav
     Pre-gap length  0:00:03.02
     Peak level 100.0 %
     Extraction speed 2.4 X
     Track quality 99.9 %
     Test CRC 2E2EAD6E
     Copy CRC 2E2EAD6E
     Track not present in AccurateRip database
     Copy OK
Track  9
     Filename C:\Flac\09 Ilo veyou.wav
     Pre-gap length  0:00:01.25
     Peak level 100.0 %
     Extraction speed 3.0 X
     Track quality 100.0 %
     Test CRC D451830B
     Copy CRC D451830B
     Track not present in AccurateRip database
     Copy OK
Track 10
     Filename C:\Flac\10 Message.wav
     Peak level 70.7 %
     Extraction speed 2.4 X
     Track quality 100.0 %
     Test CRC 45BC4CBC
     Copy CRC 45BC4CBC
     Track not present in AccurateRip database
     Copy OK
Track 11
     Filename C:\Flac\11 La France.wav
     Peak level 100.0 %
     Extraction speed 3.1 X
     Track quality 99.9 %
     Test CRC DDB8A203
     Copy CRC DDB8A203
     Track not present in AccurateRip database
     Copy OK
Track 12
     Filename C:\Flac\12 My man is married but not to me.wav
     Peak level 100.0 %
     Extraction speed 3.5 X
     Track quality 100.0 %
     Test CRC FDEC45BC
     Copy CRC FDEC45BC
     Track not present in AccurateRip database
     Copy OK
Track 13
     Filename C:\Flac\13 Pleasure.wav
     Pre-gap length  0:00:00.68
     Peak level 100.0 %
     Extraction speed 2.8 X
     Track quality 99.9 %
     Test CRC 53A8CC28
     Copy CRC 53A8CC28
     Track not present in AccurateRip database
     Copy OK
Track 14
     Filename C:\Flac\14 Le banquet.wav
     Peak level 80.3 %
     Extraction speed 3.8 X
     Track quality 100.0 %
     Test CRC 71FE4EF3
     Copy CRC 71FE4EF3
     Track not present in AccurateRip database
     Copy OK
Track 15
     Filename C:\Flac\15 Tout dit.wav
     Pre-gap length  0:00:01.44
     Peak level 91.7 %
     Extraction speed 3.9 X
     Track quality 100.0 %
     Test CRC 2EAC9CB9
     Copy CRC 2EAC9CB9
     Track not present in AccurateRip database
     Copy OK
None of the tracks are present in the AccurateRip database
No errors occurred
End of status report
---- CUETools DB Plugin V2.1.3
[CTDB TOCID: ch8WZ2J4vvE.M5nWTkcFFq_m8mo-] found, Submit result: ch8WZ2J4vvE.M5nWTkcFFq_m8mo- has been confirmed
[27b4018d] (1/1) Accurately ripped
==== Log checksum D3D70640DBBE5DA7C3554B603278BD07AB54EF3F51B197B2E3D25EAD6F89EAFC ====
Код:
-----------------------
DON'T MODIFY THIS FILE
-----------------------
PERFORMER: auCDtect Task Manager, ver. 1.5.1RC3 build 1.5.1.4
Copyright (c) 2008-2010 y-soft. All rights reserved
[url=http://y-soft.org]http://y-soft.org[/url]
ANALYZER: auCDtect: CD records authenticity detector, version 0.8.2
Copyright (c) 2004 Oleg Berngardt. All rights reserved.
Copyright (c) 2004 Alexander Djourik. All rights reserved.
FILE: 15 Tout dit.flac
  Size: 15128536 Hash: 861364AAD7BA24CE700E841DB72DC8D9 Accuracy: -m0
  Conclusion: CDDA 58%
  Signature: 03BDF092D22234E95932143B1336669BBE28918F
FILE: 14 Le banquet.flac
  Size: 15311869 Hash: 616D14338B2C6AE0BDC68F380A53FB92 Accuracy: -m0
  Conclusion: CDDA 100%
  Signature: 258FB39B23BFE98CB223E998462EA79A7075813F
FILE: 13 Pleasure.flac
  Size: 10932193 Hash: 14A4E083F2F5AA444D8BE66BA6DA5571 Accuracy: -m0
  Conclusion: CDDA 100%
  Signature: B2E62074945F4E6038743E2A342312A10876BCEE
FILE: 12 My man is married but not to me.flac
  Size: 14243447 Hash: 7FA749EF3C3DF2619E5801BD9E16D332 Accuracy: -m0
  Conclusion: CDDA 100%
  Signature: 4E174A4D9BCFCE6F4B0F315DF9530A0A03C90F6E
FILE: 11 La France.flac
  Size: 18471655 Hash: 9AF4C05A1D4321FBEFC178D087F70B77 Accuracy: -m0
  Conclusion: CDDA 100%
  Signature: 40755C96E4420FCCA4A0C85AF5FC4AD42583DBE8
FILE: 10 Message.flac
  Size: 4377210 Hash: 0500FB2FA6201327517705096B884B3A Accuracy: -m0
  Conclusion: CDDA 100%
  Signature: 7172BE51378B9475130348EFB3DF70751EF89A76
FILE: 09 Ilo veyou.flac
  Size: 9799555 Hash: 90EAA94C33D8B9EBAEEBF42FD8405655 Accuracy: -m0
  Conclusion: CDDA 100%
  Signature: C2FECF37CDD9F99DABA854B24CD9589FDF6A3DF7
FILE: 08 Bubble lady.flac
  Size: 9151587 Hash: 3F257730A9785B3BA343B6D5B9CE7F75 Accuracy: -m0
  Conclusion: CDDA 100%
  Signature: F44EF567F17F3E00D5A9D8461E933E2FB52A2B8A
FILE: 07 Le berger.flac
  Size: 26440486 Hash: 794C10A82379FCF0C42B1A2D9F28BDC6 Accuracy: -m0
  Conclusion: CDDA 100%
  Signature: B384D29C6794FF5A7BFA04818278B81F7B8F2BDF
FILE: 06 Mars is no fun.flac
  Size: 15134200 Hash: CE86C42CF9A541F8F2A56590FE988A57 Accuracy: -m0
  Conclusion: CDDA 100%
  Signature: BBF02A1B438E39127213273F815E491806CE3000
FILE: 05 She was.flac
  Size: 25372852 Hash: 690F32E8D467819BE3025ABA319442D2 Accuracy: -m0
  Conclusion: CDDA 100%
  Signature: 48B21F7BF7A55714F607108B6A41FFBF7C4B8A49
FILE: 04 Wet boy.flac
  Size: 13035678 Hash: 754258395EF8B63CFCCFF8941A805C13 Accuracy: -m0
  Conclusion: CDDA 100%
  Signature: E0AC7BE2E3C66B0E8ECF56CCB5C6956E5A8DA27B
FILE: 03 Allez allez allez.flac
  Size: 22969267 Hash: F9F137305F7EFF748BD876471712897F Accuracy: -m0
  Conclusion: CDDA 100%
  Signature: 19BFA3CDFCC4FDD83454DAE17C0EE39AB82841EF
FILE: 02 L'étourderie.flac
  Size: 11050228 Hash: 99A837B7A373220A52ADBEF8DAA09A0D Accuracy: -m0
  Conclusion: CDDA 100%
  Signature: A80F0C39556AE5EF5C5353D8522464E0EF587B4A
FILE: 01 Aujourd'hui.flac
  Size: 6791958 Hash: 43FACC51A16489126E9EF794DACF49AE Accuracy: -m0
  Conclusion: CDDA 100%
  Signature: B4EB9969B8DBBC6F3160B5BA96866EE15C7EDB27
Код:
REM GENRE "Chanson Franзaise"
REM DATE 2011
REM DISCID D20B6D10
REM COMMENT "ExactAudioCopy v1.0b3"
CATALOG 5099902982908
PERFORMER "Camille"
TITLE "Ilo Veyou"
FILE "01 Aujourd'hui.flac" WAVE
  TRACK 01 AUDIO
    TITLE "Aujourd'hui"
    PERFORMER "Camille"
    ISRC FRZ111100515
    INDEX 01 00:00:00
FILE "02 L'etourderie.flac" WAVE
  TRACK 02 AUDIO
    TITLE "L'йtourderie"
    PERFORMER "Camille"
    ISRC FRZ111100516
    INDEX 01 00:00:00
FILE "03 Allez allez allez.flac" WAVE
  TRACK 03 AUDIO
    TITLE "Allez allez allez"
    PERFORMER "Camille"
    ISRC FRZ111100517
    INDEX 01 00:00:00
  TRACK 04 AUDIO
    TITLE "Wet boy"
    PERFORMER "Camille"
    ISRC FRZ111100528
    INDEX 00 03:37:19
FILE "04 Wet boy.flac" WAVE
    INDEX 01 00:00:00
FILE "05 She was.flac" WAVE
  TRACK 05 AUDIO
    TITLE "She was"
    PERFORMER "Camille"
    ISRC FRZ111100526
    INDEX 01 00:00:00
FILE "06 Mars is no fun.flac" WAVE
  TRACK 06 AUDIO
    TITLE "Mars is no fun"
    PERFORMER "Camille"
    ISRC FRZ111100521
    INDEX 01 00:00:00
  TRACK 07 AUDIO
    TITLE "Le berger"
    PERFORMER "Camille"
    ISRC FRZ111100518
    INDEX 00 02:34:39
FILE "07 Le berger.flac" WAVE
    INDEX 01 00:00:00
  TRACK 08 AUDIO
    TITLE "Bubble lady"
    PERFORMER "Camille"
    ISRC FRZ111100522
    INDEX 00 05:10:53
FILE "08 Bubble lady.flac" WAVE
    INDEX 01 00:00:00
  TRACK 09 AUDIO
    TITLE "Ilo veyou"
    PERFORMER "Camille"
    ISRC FRZ111100519
    INDEX 00 01:46:22
FILE "09 Ilo veyou.flac" WAVE
    INDEX 01 00:00:00
FILE "10 Message.flac" WAVE
  TRACK 10 AUDIO
    TITLE "Message"
    PERFORMER "Camille"
    ISRC FRZ111100525
    INDEX 01 00:00:00
FILE "11 La France.flac" WAVE
  TRACK 11 AUDIO
    TITLE "La France"
    PERFORMER "Camille"
    ISRC FRZ111100524
    INDEX 01 00:00:00
FILE "12 My man is married but not to me.flac" WAVE
  TRACK 12 AUDIO
    TITLE "My man is married but not to me"
    PERFORMER "Camille"
    ISRC FRZ111100520
    INDEX 01 00:00:00
  TRACK 13 AUDIO
    TITLE "Pleasure"
    PERFORMER "Camille"
    ISRC FRZ111100553
    INDEX 00 02:14:68
FILE "13 Pleasure.flac" WAVE
    INDEX 01 00:00:00
FILE "14 Le banquet.flac" WAVE
  TRACK 14 AUDIO
    TITLE "Le banquet"
    PERFORMER "Camille"
    ISRC FRZ111100527
    INDEX 01 00:00:00
  TRACK 15 AUDIO
    TITLE "Tout dit"
    PERFORMER "Camille"
    ISRC FRZ111100529
    INDEX 00 02:47:44
FILE "15 Tout dit.flac" WAVE
    INDEX 01 00:00:00
  TRACK 16 MODEx/2xxx
    TITLE "DATA"
    PERFORMER "Camille"
    INDEX 00 03:03:37
Код:
Exact Audio Copy V1.0 beta 3 from 29. August 2011
EAC extraction logfile from 22. October 2011, 14:23
Camille / Ilo veyou bo cou
Used drive  : Optiarc DVD RW AD-7240S   Adapter: 3  ID: 0
Read mode               : Secure
Utilize accurate stream : Yes
Defeat audio cache      : Yes
Make use of C2 pointers : No
Read offset correction                      : 48
Overread into Lead-In and Lead-Out          : No
Fill up missing offset samples with silence : Yes
Delete leading and trailing silent blocks   : No
Null samples used in CRC calculations       : Yes
Used interface                              : Native Win32 interface for Win NT & 2000
Gap handling                                : Appended to previous track
Used output format              : User Defined Encoder
Selected bitrate                : 1024 kBit/s
Quality                         : High
Add ID3 tag                     : No
Command line compressor         : C:\Program Files (x86)\FLAC\flac.exe
Additional command line options : -8 -V -T "ARTIST=%artist%" -T "TITLE=%title%" -T "ALBUM=%albumtitle%" -T "DATE=%year%" -T "TRACKNUMBER=%tracknr%" -T "GENRE=%genre%" -T "PERFORMER=%albuminterpret%" -T "COMPOSER=%composer%" %haslyrics%--tag-from-file=LYRICS="%lyricsfile%"%haslyrics% -T "ALBUMARTIST=%albumartist%" -T "DISCNUMBER=%cdnumber%" -T "TOTALDISCS=%totalcds%" -T "TOTALTRACKS=%numtracks%" -T "COMMENT=%comment%" %source% -o %dest%
TOC of the extracted CD
     Track |   Start  |  Length  | Start sector | End sector
    ---------------------------------------------------------
        1  |  0:00.00 |  1:36.65 |         0    |     7264
        2  |  1:36.65 |  2:42.56 |      7265    |    19470
        3  |  4:19.46 |  2:59.03 |     19471    |    32898
        4  |  7:18.49 |  4:31.63 |     32899    |    53286
        5  | 11:50.37 |  3:08.06 |     53287    |    67392
Track  1
     Filename C:\Flac\01 L'étourderie (intime).wav
     Pre-gap length  0:00:02.00
     Peak level 100.0 %
     Extraction speed 1.9 X
     Track quality 100.0 %
     Test CRC 0F77CA36
     Copy CRC 0F77CA36
     Track not present in AccurateRip database
     Copy OK
Track  2
     Filename C:\Flac\02 Babies know more than us.wav
     Peak level 100.0 %
     Extraction speed 2.3 X
     Track quality 100.0 %
     Test CRC 0184248E
     Copy CRC 0184248E
     Track not present in AccurateRip database
     Copy OK
Track  3
     Filename C:\Flac\03 Allez allez allez (a capella).wav
     Peak level 100.0 %
     Extraction speed 2.5 X
     Track quality 100.0 %
     Test CRC 9E583298
     Copy CRC 9E583298
     Track not present in AccurateRip database
     Copy OK
Track  4
     Filename C:\Flac\04 She was (à la chapelle).wav
     Pre-gap length  0:00:01.68
     Peak level 100.0 %
     Extraction speed 2.9 X
     Track quality 100.0 %
     Test CRC 3EC03D4E
     Copy CRC 3EC03D4E
     Track not present in AccurateRip database
     Copy OK
Track  5
     Filename C:\Flac\05 Tout dit (avec les oiseaux).wav
     Peak level 100.0 %
     Extraction speed 2.9 X
     Track quality 100.0 %
     Test CRC 4C7E8BB7
     Copy CRC 4C7E8BB7
     Track not present in AccurateRip database
     Copy OK
None of the tracks are present in the AccurateRip database
No errors occurred
End of status report
---- CUETools DB Plugin V2.1.3
[CTDB TOCID: P5tpp9aSGEXocyyGASvB0DB_78s-] disk not present in database, Submit result: P5tpp9aSGEXocyyGASvB0DB_78s- has been uploaded
==== Log checksum 3FA360CB4DEA9E357505D34A021121909CB97E3E6C34D45F40E3306CB746FAA9 ====
Код:
-----------------------
DON'T MODIFY THIS FILE
-----------------------
PERFORMER: auCDtect Task Manager, ver. 1.5.1RC3 build 1.5.1.4
Copyright (c) 2008-2010 y-soft. All rights reserved
[url=http://y-soft.org]http://y-soft.org[/url]
ANALYZER: auCDtect: CD records authenticity detector, version 0.8.2
Copyright (c) 2004 Oleg Berngardt. All rights reserved.
Copyright (c) 2004 Alexander Djourik. All rights reserved.
FILE: 05 Tout dit (avec les oiseaux).flac
  Size: 17847792 Hash: 83811D7DC7CDB7AE3019DD65E6985799 Accuracy: -m0
  Conclusion: CDDA 100%
  Signature: ADA97800DEDE9FF84FAE1A5A613655930774B3D0
FILE: 04 She was (à la chapelle).flac
  Size: 24205549 Hash: B5F4D7806065AC0EF02748F4539F8728 Accuracy: -m0
  Conclusion: CDDA 100%
  Signature: 2D5EE201A021D36994AD2236D5B0BB9D14653813
FILE: 03 Allez allez allez (a capella).flac
  Size: 17259293 Hash: 5759AB498F7527E7308FE1DCA4AF27EE Accuracy: -m0
  Conclusion: CDDA 100%
  Signature: 6C0FA8D011A96BAF29359FB02D8E80546FE90841
FILE: 02 Babies know more than us.flac
  Size: 15824354 Hash: 6A27ABB424E4369A63CF30524B53EECA Accuracy: -m0
  Conclusion: MPEG 95%
  Signature: 8CDDDF6CC79A34C49B3A35A3A7B16CFE08285D45
FILE: 01 L'étourderie (intime).flac
  Size: 9092863 Hash: 99208F62546875FBFC129EA800500D87 Accuracy: -m0
  Conclusion: CDDA 100%
  Signature: 91F377EA2AF6F7D22E5DD52CCF8D222AF8A7A9E4
Код:
REM GENRE "Chanson franзaise"
REM DISCID 2E038205
REM COMMENT "ExactAudioCopy v1.0b3"
CATALOG 5099968015022
PERFORMER "Camille"
TITLE "Ilo veyou bo cou"
FILE "01 L'etourderie (intime).flac" WAVE
  TRACK 01 AUDIO
    TITLE "L'йtourderie (intime)"
    PERFORMER "Camille"
    ISRC FRZ111100889
    FLAGS DCP
    INDEX 01 00:00:00
FILE "02 Babies know more than us.flac" WAVE
  TRACK 02 AUDIO
    TITLE "Babies know more than us"
    PERFORMER "Camille"
    ISRC FRZ111100858
    FLAGS DCP
    INDEX 01 00:00:00
FILE "03 Allez allez allez (a capella).flac" WAVE
  TRACK 03 AUDIO
    TITLE "Allez allez allez (a capella)"
    PERFORMER "Camille"
    ISRC FRZ111100857
    FLAGS DCP
    INDEX 01 00:00:00
  TRACK 04 AUDIO
    TITLE "She was (а la chapelle)"
    PERFORMER "Camille"
    ISRC FRZ111101018
    FLAGS DCP
    INDEX 00 02:57:27
FILE "04 She was (a la chapelle).flac" WAVE
    INDEX 01 00:00:00
FILE "05 Tout dit (avec les oiseaux).flac" WAVE
  TRACK 05 AUDIO
    TITLE "Tout dit (avec les oiseaux)"
    PERFORMER "Camille"
    ISRC FRZ111101019
    FLAGS DCP
    INDEX 01 00:00:00
...a magnificent, kaleidoscopic oddity, unafraid to risk ridiculousness in pursuit of the sublime, fearlessly unlike anything else you’ll hear this year
Правила, инструкции, FAQ!!!
Торрент  Добавлен [01 янв 2020, 23:01] Скачать торрент Магнет ссылка
Скачать торрент
[ Размер 13.42 КБ / Просмотров 7 ]

Статус
Проверен 
 
Размер  288.52 МБ
Приватный: Нет (DHT включён)
.torrent скачан  1
 


     Отправить личное сообщение
   
Страница 1 из 1
Показать сообщения за:  Поле сортировки  
Начать новую тему Ответить на тему


Сейчас этот форум просматривают: нет зарегистрированных пользователей и гости: 0


Вы не можете начинать темы
Вы не можете отвечать на сообщения
Вы не можете редактировать свои сообщения
Вы не можете удалять свои сообщения
Вы не можете добавлять вложения

Перейти:  
cron