Начать новую тему Ответить на тему
Статистика раздачи
Размер: 2.74 ГБ | Добавлен: 26 мар 2019, 19:17 | Скачали: 0
Сидеров: 0  [0 байт/сек]    Личеров: 0  [0 байт/сек]
Пред. тема | След. тема 

Автор
Сообщение

СообщениеДобавлено: 26 мар 2019, 19:17 

Ответить с цитатой 

Holly McNarland / Дискография so far
Жанр: Alternative/Indie/Soft-Rock
Страна-производитель диска: Canada
Год издания диска: 1995-2012
Страна: Canada
Аудио кодек: WavPack (*.wv)
Тип рипа: iso.wv
Битрейт аудио: lossless
Источник (релизер): tatuk
Наличие сканов в содержимом раздачи:
Updated 7/9/2013: добравлен диск 2012 года - "Run Body Run". Остальные диски не менялись. Кто уже качал, добавьте лишь последний диск.
Продолжаем радоваться хорошей канадской музычке.
Холли МакНорланд родилась на севере - в провинции Манитоба. Молодость её прошла в Виннипеге среди сопок и голубых озёр. Наверное, поэтому она в творчестве подобна чукче - поёт о том, что её окружает: о коврах и кошках, о головной боли, о мухах, о семье и друзьях... Манерой пения она малька напоминает англичанку Dido, но голос у Холли не в пример сильнее. В Канаде она достаточно популярна. Сейчас, конечно, уже поменьше, - но лет десять назад, помню, частенько наблюдал её по местному музыкальному телевидению. Холли снялась в десятке клипов, которые так до сих пор и не изданы. Вышел только один концерт на ДВД - и всё.
#777Треклист:
1. Stormy
2. Dad & I
3. Cry or Cum
4. Sick Boy
5. Mr. 5 Minutes
6. I Won't Stay
Доп. информация:
В 1995 году за несколько тысяч долларов Холли купила студийное время и самостоятельна записала свой первый ЕР, достаточно благосклонно принятый критиками. А был ей тогда 21 год...
Код:
Exact Audio Copy V1.0 beta 1 from 15. November 2010
EAC extraction logfile from 17. April 2011, 15:51
Holly McNarland / Sour Pie
Used drive  : SONY    DVD RW DRU-830A   Adapter: 1  ID: 0
Read mode               : Secure
Utilize accurate stream : Yes
Defeat audio cache      : Yes
Make use of C2 pointers : No
Read offset correction                      : 6
Overread into Lead-In and Lead-Out          : No
Fill up missing offset samples with silence : Yes
Delete leading and trailing silent blocks   : No
Null samples used in CRC calculations       : Yes
Used interface                              : Native Win32 interface for Win NT & 2000
Used output format              : User Defined Encoder
Selected bitrate                : 128 kBit/s
Quality                         : High
Add ID3 tag                     : No
Command line compressor         : C:\Program Files (x86)\Exact Audio Copy\wavpack\wavpack.exe
Additional command line options : -hlm %s
TOC of the extracted CD
     Track |   Start  |  Length  | Start sector | End sector
    ---------------------------------------------------------
        1  |  0:00.30 |  5:48.65 |        30    |    26194
        2  |  5:49.20 |  3:39.64 |     26195    |    42683
        3  |  9:29.09 |  5:27.12 |     42684    |    67220
        4  | 14:56.21 |  4:13.22 |     67221    |    86217
        5  | 19:09.43 |  3:21.72 |     86218    |   101364
        6  | 22:31.40 |  3:07.46 |    101365    |   115435
Range status and errors
Selected range
     Filename D:\_NL+_\flac\Holly McNarland - Sour Pie.wav
     Peak level 100.0 %
     Extraction speed 0.4 X
     Range quality 99.9 %
     Copy CRC 87A86FC7
     Copy OK
No errors occurred
AccurateRip summary
Track  1  cannot be verified as accurate (confidence 3)  [846639F0], AccurateRip returned [2AF64DCF]
Track  2  cannot be verified as accurate (confidence 3)  [45B36ECE], AccurateRip returned [00A2E87F]
Track  3  cannot be verified as accurate (confidence 3)  [08CF1B72], AccurateRip returned [225F9F5D]
Track  4  cannot be verified as accurate (confidence 3)  [CD556B0D], AccurateRip returned [3F3CC60B]
Track  5  cannot be verified as accurate (confidence 3)  [AADA2760], AccurateRip returned [ED5B2ED2]
Track  6  cannot be verified as accurate (confidence 3)  [092E3A61], AccurateRip returned [CF8F3415]
No tracks could be verified as accurate
You may have a different pressing from the one(s) in the database
End of status report
==== Log checksum 02D6E9EB10E50EFA765BFD13947F655EA6C135F725245325E519BA3A119FFEE7 ====
Код:
REM GENRE "Rock"
REM DATE 1995
REM DISCID 45060306
REM COMMENT "ExactAudioCopy v1.0b1"
PERFORMER "Holly McNarland"
TITLE "Sour Pie"
FILE "Holly McNarland - Sour Pie 1995.wv" WAVE
  TRACK 01 AUDIO
    TITLE "Stormy"
    PERFORMER "Holly McNarland"
    INDEX 00 00:00:00
    INDEX 01 00:00:30
  TRACK 02 AUDIO
    TITLE "Dad & I"
    PERFORMER "Holly McNarland"
    INDEX 01 05:49:20
  TRACK 03 AUDIO
    TITLE "Cry Or Cum"
    PERFORMER "Holly McNarland"
    INDEX 01 09:29:09
  TRACK 04 AUDIO
    TITLE "Sick Boy"
    PERFORMER "Holly McNarland"
    INDEX 01 14:56:21
  TRACK 05 AUDIO
    TITLE "Mr. 5 Minutes"
    PERFORMER "Holly McNarland"
    INDEX 01 19:09:43
  TRACK 06 AUDIO
    TITLE "I Won't Stay"
    PERFORMER "Holly McNarland"
    INDEX 01 22:31:40
Код:
-----------------------
DON'T MODIFY THIS FILE
-----------------------
PERFORMER: auCDtect Task Manager, ver. 1.5.1RC3 build 1.5.1.4
Copyright (c) 2008-2010 y-soft. All rights reserved
[url=http://y-soft.org]http://y-soft.org[/url]
ANALYZER: auCDtect: CD records authenticity detector, version 0.8.2
Copyright (c) 2004 Oleg Berngardt. All rights reserved.
Copyright (c) 2004 Alexander Djourik. All rights reserved.
FILE: Holly McNarland - Sour Pie.wav
  Size: 271505516 Hash: 5FE815DC1089EA96C7B4E294F01B05F5 Accuracy: -m0
  Conclusion: CDDA 100%
  Signature: EA9EC719A134E0DBF760E9EAF1D16736C3623E1A
Holly McNarland - Sour Pie 1995.wv
Holly McNarland - Sour Pie 1995.wv.cue
disk.jpg
PABD6284.sig
back.jpg
Holly McNarland - Sour Pie 1995.log
front.jpg
checkers\Holly McNarland - Sour Pie 1995.accurip
checkers\Holly McNarland - Sour Pie.wav.auCDtect.txt
checkers\matrix.jpg
checkers\spectral.jpg
checkers\wave.jpg
checkers\EAC.jpg
misc\info.txt
readme\[RUS] README No unpacking needed to play or burn this release.txt
readme\[ENG] README No unpacking needed to play or burn this release.txt
scans\disk.png
scans\front.png
scans\inlay.png
scans\inside.png
scans\back.png
#777Треклист:
1. Numb (3:57)
2. Elmo (4:40)
3. Porno Mouth (4:16)
4. Water (5:32)
5. Coward (4:41)
6. The Box (3:15)
7. UFO (4:39)
8. Mystery Song (5:05)
9. Just In Me (2:20)
10. Twisty Mirror (3:14)
11. I Won't Stay (4:06)
Доп. информация:
Наверное, всё-таки, самый сильный альбом Холли. По крайней мере, самый драйвовый. Ну да, молодость...
В альбоме присутствует вкладка с текстами песен, стилизованными под прописные буквы. То есть - хер прочтёшь. Убить дизайнера мало.
Мои любимые композиции - Numb, Elmo, Water, I won't stay.
Код:
Exact Audio Copy V1.0 beta 1 from 15. November 2010
EAC extraction logfile from 17. April 2011, 13:21
Holly McNarland / Stuff
Used drive  : SONY    DVD RW DRU-830A   Adapter: 1  ID: 0
Read mode               : Secure
Utilize accurate stream : Yes
Defeat audio cache      : Yes
Make use of C2 pointers : No
Read offset correction                      : 6
Overread into Lead-In and Lead-Out          : No
Fill up missing offset samples with silence : Yes
Delete leading and trailing silent blocks   : No
Null samples used in CRC calculations       : Yes
Used interface                              : Native Win32 interface for Win NT & 2000
Used output format              : User Defined Encoder
Selected bitrate                : 128 kBit/s
Quality                         : High
Add ID3 tag                     : No
Command line compressor         : C:\Program Files (x86)\Exact Audio Copy\wavpack\wavpack.exe
Additional command line options : -hlm %s
TOC of the extracted CD
     Track |   Start  |  Length  | Start sector | End sector
    ---------------------------------------------------------
        1  |  0:00.00 |  3:57.05 |         0    |    17779
        2  |  3:57.05 |  4:40.47 |     17780    |    38826
        3  |  8:37.52 |  4:16.73 |     38827    |    58099
        4  | 12:54.50 |  5:32.35 |     58100    |    83034
        5  | 18:27.10 |  4:41.02 |     83035    |   104111
        6  | 23:08.12 |  3:15.55 |    104112    |   118791
        7  | 26:23.67 |  4:39.65 |    118792    |   139781
        8  | 31:03.57 |  5:05.65 |    139782    |   162721
        9  | 36:09.47 |  2:20.25 |    162722    |   173246
       10  | 38:29.72 |  3:14.65 |    173247    |   187861
       11  | 41:44.62 |  4:06.60 |    187862    |   206371
Range status and errors
Selected range
     Filename D:\_NL+_\flac\Holly McNarland - Stuff.wav
     Peak level 99.8 %
     Extraction speed 0.6 X
     Range quality 100.0 %
     Copy CRC 2FE506A3
     Copy OK
No errors occurred
AccurateRip summary
Track  1  accurately ripped (confidence 3)  [BF5188F8]
Track  2  accurately ripped (confidence 3)  [F4ED1EAA]
Track  3  accurately ripped (confidence 3)  [128088B3]
Track  4  accurately ripped (confidence 3)  [2165B87F]
Track  5  accurately ripped (confidence 3)  [F3945936]
Track  6  accurately ripped (confidence 3)  [DE7E38F9]
Track  7  accurately ripped (confidence 3)  [CC701C78]
Track  8  accurately ripped (confidence 3)  [2B2A92DC]
Track  9  accurately ripped (confidence 3)  [4EEC7F98]
Track 10  accurately ripped (confidence 3)  [11AF00E9]
Track 11  accurately ripped (confidence 3)  [738CDA05]
All tracks accurately ripped
End of status report
==== Log checksum 675DA364F8DFF48B72C224C3CD650C2CDE29CDEDEA89597BABC8D8FB085FBAB7 ====
Код:
REM GENRE "Alternative"
REM DATE 1997
REM DISCID 910ABF0B
REM COMMENT "ExactAudioCopy v1.0b1"
PERFORMER "Holly McNarland"
TITLE "Stuff"
FILE "Holly McNarland - Stuff 1997.wv" WAVE
  TRACK 01 AUDIO
    TITLE "Numb"
    PERFORMER "Holly McNarland"
    INDEX 01 00:00:00
  TRACK 02 AUDIO
    TITLE "Elmo"
    PERFORMER "Holly McNarland"
    INDEX 01 03:57:05
  TRACK 03 AUDIO
    TITLE "Porno Mouth"
    PERFORMER "Holly McNarland"
    INDEX 00 08:37:20
    INDEX 01 08:37:52
  TRACK 04 AUDIO
    TITLE "Water"
    PERFORMER "Holly McNarland"
    INDEX 01 12:54:50
  TRACK 05 AUDIO
    TITLE "Coward"
    PERFORMER "Holly McNarland"
    INDEX 01 18:27:10
  TRACK 06 AUDIO
    TITLE "The Box"
    PERFORMER "Holly McNarland"
    INDEX 01 23:08:12
  TRACK 07 AUDIO
    TITLE "Ufo"
    PERFORMER "Holly McNarland"
    INDEX 01 26:23:67
  TRACK 08 AUDIO
    TITLE "Mystery Song"
    PERFORMER "Holly McNarland"
    INDEX 01 31:03:57
  TRACK 09 AUDIO
    TITLE "Just In Me"
    PERFORMER "Holly McNarland"
    INDEX 00 36:07:22
    INDEX 01 36:09:47
  TRACK 10 AUDIO
    TITLE "Twisty Mirror"
    PERFORMER "Holly McNarland"
    INDEX 01 38:29:72
  TRACK 11 AUDIO
    TITLE "I Won't Stay"
    PERFORMER "Holly McNarland"
    INDEX 01 41:44:62
Код:
-----------------------
DON'T MODIFY THIS FILE
-----------------------
PERFORMER: auCDtect Task Manager, ver. 1.5.1RC3 build 1.5.1.4
Copyright (c) 2008-2010 y-soft. All rights reserved
[url=http://y-soft.org]http://y-soft.org[/url]
ANALYZER: auCDtect: CD records authenticity detector, version 0.8.2
Copyright (c) 2004 Oleg Berngardt. All rights reserved.
Copyright (c) 2004 Alexander Djourik. All rights reserved.
FILE: Holly McNarland - Stuff.wv
  Size: 320251032 Hash: E2EDAA4BD4E56E0EF006F1E144E138AA Accuracy: -m0
  Conclusion: CDDA 100%
  Signature: 1F364500BC5B8B308A9536B9A24563B405874F17
Holly McNarland - Stuff 1997
Holly McNarland - Stuff 1997.log
Holly McNarland - Stuff 1997.wv
Holly McNarland - Stuff 1997.wv.cue
disk.jpg
CUSD 53075.sig
back.jpg
front.jpg
checkers\Holly McNarland - Stuff 1997.accurip
checkers\Holly McNarland - Stuff.wv.auCDtect.txt
checkers\matrix.jpg
checkers\spectral.jpg
checkers\wave.jpg
checkers\EAC.jpg
misc\info.txt
readme\[RUS] README No unpacking needed to play or burn this release.txt
readme\[ENG] README No unpacking needed to play or burn this release.txt
scans\disk.png
scans\front.png
scans\inside1.png
scans\inside2.png
scans\inside3.png
scans\back.png
#777Треклист:
1 Water
2 Numb
3 The Box
4 I Won't Stay
5 Elmo
6 Stormy
7 In the Air Tonight
Доп. информация:
Живой концерт, основанный в большинстве на песнях диска "Stuff". Запись была сделана летом 1998 года на двух концертных площадках - в Торонто и Лас-Вегасе. Композиция "In the Air Tonight" представляет собой кавер песни Фила Коллинза.
Состав:
Holly McNarland - Lead vocals, acoustic guitar
Mark Pullyblank - bass
Tone Valcic - drums
Les Cooper - guitar, background vocals
Код:
Exact Audio Copy V1.0 beta 1 from 15. November 2010
EAC extraction logfile from 17. April 2011, 13:39
Holly McNarland / Live Stuff
Used drive  : SONY    DVD RW DRU-830A   Adapter: 1  ID: 0
Read mode               : Secure
Utilize accurate stream : Yes
Defeat audio cache      : Yes
Make use of C2 pointers : No
Read offset correction                      : 6
Overread into Lead-In and Lead-Out          : No
Fill up missing offset samples with silence : Yes
Delete leading and trailing silent blocks   : No
Null samples used in CRC calculations       : Yes
Used interface                              : Native Win32 interface for Win NT & 2000
Used output format              : User Defined Encoder
Selected bitrate                : 128 kBit/s
Quality                         : High
Add ID3 tag                     : No
Command line compressor         : C:\Program Files (x86)\Exact Audio Copy\wavpack\wavpack.exe
Additional command line options : -hlm %s
TOC of the extracted CD
     Track |   Start  |  Length  | Start sector | End sector
    ---------------------------------------------------------
        1  |  0:00.00 |  6:43.22 |         0    |    30246
        2  |  6:43.22 |  4:10.63 |     30247    |    49059
        3  | 10:54.10 |  4:22.15 |     49060    |    68724
        4  | 15:16.25 |  5:19.50 |     68725    |    92699
        5  | 20:36.00 |  6:41.50 |     92700    |   122824
        6  | 27:17.50 |  9:08.17 |    122825    |   163941
        7  | 36:25.67 |  6:56.00 |    163942    |   195141
Range status and errors
Selected range
     Filename D:\_NL+_\flac\Holly McNarland - Live Stuff.wav
     Peak level 100.0 %
     Extraction speed 1.0 X
     Range quality 100.0 %
     Copy CRC E851F715
     Copy OK
No errors occurred
AccurateRip summary
Track  1  accurately ripped (confidence 2)  [F7DD3CF3]
Track  2  accurately ripped (confidence 2)  [328CEC5E]
Track  3  accurately ripped (confidence 2)  [B277AA58]
Track  4  accurately ripped (confidence 2)  [907BCE24]
Track  5  accurately ripped (confidence 2)  [746B84E5]
Track  6  accurately ripped (confidence 2)  [16E87A89]
Track  7  accurately ripped (confidence 2)  [A897396E]
All tracks accurately ripped
End of status report
==== Log checksum 931AB0FFE38244C57955437D552527A2DC7F76C9E0E2DF123CB794040BE95216 ====
Код:
-----------------------
DON'T MODIFY THIS FILE
-----------------------
PERFORMER: auCDtect Task Manager, ver. 1.5.1RC3 build 1.5.1.4
Copyright (c) 2008-2010 y-soft. All rights reserved
[url=http://y-soft.org]http://y-soft.org[/url]
ANALYZER: auCDtect: CD records authenticity detector, version 0.8.2
Copyright (c) 2004 Oleg Berngardt. All rights reserved.
Copyright (c) 2004 Alexander Djourik. All rights reserved.
FILE: Holly McNarland - Live Stuff.wav
  Size: 458974028 Hash: 204CEA35287F97FC49EE861ADA5F215D Accuracy: -m0
  Conclusion: CDDA 100%
  Signature: 9903F3CEA22B0D4070B7747FC9E5010178D8211C
Holly McNarland - Live Stuff 1999.wv
Holly McNarland - Live Stuff 1999.wv.cue
disk.jpg
back.jpg
Holly McNarland - Live Stuff 1999.log
front.jpg
UD 53258.sig
checkers\Holly McNarland - Live Stuff 1999.accurip
checkers\Holly McNarland - Live Stuff.wav.auCDtect.txt
checkers\matrix.jpg
checkers\spectral.jpg
checkers\wave.jpg
checkers\EAC.jpg
misc\info.txt
readme\[RUS] README No unpacking needed to play or burn this release.txt
readme\[ENG] README No unpacking needed to play or burn this release.txt
scans\disk.png
scans\front.png
scans\inlay.png
scans\inside.png
scans\back.png
#777Треклист:
1. Do You Get High? (3:58)
2. Sister (3:49)
3. Beautiful Blue (4:30)
4. When You Come Down (4:38)
5. Brush into My Tears (3:35)
6. I Cry (4:22)
7. Voices (3:46)
8. The Ride (4:54)
9. Dallas (4:41)
10. Watching Over You (3:47)
11. Losing My Face (4:22)
12. More (5:35)
13. In the Air Tonight (Bonus Track) (4:51)
Доп. информация:
Вроде бы как более зрелый альбом, лирика изящнее, - но драйва заметно меньше. Бонусом в конце идёт кавер Фила Коллинза.
Записано в разных студиях от Ванкувера до Малибу с разными сессионными музыкантами (в основном те же, что и на "Live Stuff").
Лучшей песней общепринято считать "Beautiful Blue".
На диске присутствует дэйта-трек, лежит в зипе в соответствующем фолдере. Дэйта включают в себя пару клипов в формате MOV и кучу фотографий. Работает это дело на IBM-PC.
Код:
Exact Audio Copy V1.0 beta 1 from 15. November 2010
EAC extraction logfile from 17. April 2011, 18:34
Holly McNarland / Home Is Where My Feet Are
Used drive  : SONY    DVD RW DRU-830A   Adapter: 1  ID: 0
Read mode               : Secure
Utilize accurate stream : Yes
Defeat audio cache      : Yes
Make use of C2 pointers : No
Read offset correction                      : 6
Overread into Lead-In and Lead-Out          : No
Fill up missing offset samples with silence : Yes
Delete leading and trailing silent blocks   : No
Null samples used in CRC calculations       : Yes
Used interface                              : Native Win32 interface for Win NT & 2000
Used output format              : User Defined Encoder
Selected bitrate                : 128 kBit/s
Quality                         : High
Add ID3 tag                     : No
Command line compressor         : C:\Program Files (x86)\Exact Audio Copy\wavpack\wavpack.exe
Additional command line options : -hlm %s
TOC of the extracted CD
     Track |   Start  |  Length  | Start sector | End sector
    ---------------------------------------------------------
        1  |  0:00.00 |  3:58.30 |         0    |    17879
        2  |  3:58.30 |  3:49.27 |     17880    |    35081
        3  |  7:47.57 |  4:30.23 |     35082    |    55354
        4  | 12:18.05 |  4:38.15 |     55355    |    76219
        5  | 16:56.20 |  3:35.47 |     76220    |    92391
        6  | 20:31.67 |  4:22.53 |     92392    |   112094
        7  | 24:54.45 |  3:46.25 |    112095    |   129069
        8  | 28:40.70 |  4:54.07 |    129070    |   151126
        9  | 33:35.02 |  4:41.48 |    151127    |   172249
       10  | 38:16.50 |  3:44.42 |    172250    |   189091
       11  | 42:01.17 |  4:22.00 |    189092    |   208741
       12  | 46:23.17 |  5:35.33 |    208742    |   233899
       13  | 54:30.50 | 15:39.64 |    245300    |   315788
Range status and errors
Selected range
     Filename D:\_NL+_\flac\Holly McNarland - Home Is Where My Feet Are.wav
     Peak level 100.0 %
     Extraction speed 2.4 X
     Range quality 100.0 %
     Copy CRC 769E5C0E
     Copy OK
No errors occurred
AccurateRip summary
Track  1  accurately ripped (confidence 7)  [17F9E004]
Track  2  accurately ripped (confidence 7)  [E4548918]
Track  3  accurately ripped (confidence 7)  [945BC51B]
Track  4  accurately ripped (confidence 7)  [085A9A8C]
Track  5  accurately ripped (confidence 7)  [252B7FEC]
Track  6  accurately ripped (confidence 7)  [C40C4F7C]
Track  7  accurately ripped (confidence 7)  [9E9B87FE]
Track  8  accurately ripped (confidence 7)  [AAA04BC2]
Track  9  accurately ripped (confidence 7)  [0FD29E77]
Track 10  accurately ripped (confidence 7)  [ABA1B4EA]
Track 11  accurately ripped (confidence 7)  [CD065C85]
Track 12  accurately ripped (confidence 7)  [664916B4]
All tracks accurately ripped
End of status report
==== Log checksum 2957F22A70F510D5B74DED34C66F545A25279F15CDB63B5AA23507454883DEAD ====
Код:
REM GENRE "Rock"
REM DATE 2002
REM DISCID A810720D
REM COMMENT "ExactAudioCopy v1.0b1"
PERFORMER "Holly McNarland"
TITLE "Home Is Where My Feet Are"
FILE "Holly McNarland - Home Is Where My Feet Are 2002.wv" WAVE
  TRACK 01 AUDIO
    TITLE "Do You Get High?"
    PERFORMER "Holly McNarland"
    INDEX 01 00:00:00
  TRACK 02 AUDIO
    TITLE "Sister"
    PERFORMER "Holly McNarland"
    INDEX 01 03:58:30
  TRACK 03 AUDIO
    TITLE "Beautiful Blue"
    PERFORMER "Holly McNarland"
    INDEX 01 07:47:57
  TRACK 04 AUDIO
    TITLE "When You Come Down"
    PERFORMER "Holly McNarland"
    INDEX 01 12:18:05
  TRACK 05 AUDIO
    TITLE "Brush Into My Tears"
    PERFORMER "Holly McNarland"
    INDEX 00 16:54:35
    INDEX 01 16:56:20
  TRACK 06 AUDIO
    TITLE "I Cry"
    PERFORMER "Holly McNarland"
    INDEX 01 20:31:67
  TRACK 07 AUDIO
    TITLE "Voices"
    PERFORMER "Holly McNarland"
    INDEX 01 24:54:45
  TRACK 08 AUDIO
    TITLE "The Ride"
    PERFORMER "Holly McNarland"
    INDEX 01 28:40:70
  TRACK 09 AUDIO
    TITLE "Dallas"
    PERFORMER "Holly McNarland"
    INDEX 01 33:35:02
  TRACK 10 AUDIO
    TITLE "Watching Over You"
    PERFORMER "Holly McNarland"
    INDEX 01 38:16:50
  TRACK 11 AUDIO
    TITLE "Losing My Face"
    PERFORMER "Holly McNarland"
    INDEX 01 42:01:17
  TRACK 12 AUDIO
    TITLE "More"
    PERFORMER "Holly McNarland"
    INDEX 01 46:23:17
Код:
-----------------------
DON'T MODIFY THIS FILE
-----------------------
PERFORMER: auCDtect Task Manager, ver. 1.5.1RC3 build 1.5.1.4
Copyright (c) 2008-2010 y-soft. All rights reserved
[url=http://y-soft.org]http://y-soft.org[/url]
ANALYZER: auCDtect: CD records authenticity detector, version 0.8.2
Copyright (c) 2004 Oleg Berngardt. All rights reserved.
Copyright (c) 2004 Alexander Djourik. All rights reserved.
FILE: Holly McNarland - Home Is Where My Feet Are.wav
  Size: 550132844 Hash: E6901F0CC96B8D36A4E6AFCBDBC07722 Accuracy: -m0
  Conclusion: CDDA 100%
  Signature: F5B2C21142A8DA39DACC9DA2202DF27B0BCA490A
Holly McNarland - Home Is Where My Feet Are 2002.log
Holly McNarland - Home Is Where My Feet Are 2002.wv
Holly McNarland - Home Is Where My Feet Are 2002.wv.cue
back.jpg
4400171482.sig
front.jpg
disk.jpg
checkers\Holly McNarland - Home Is Where My Feet Are 2002.accurip
checkers\Holly McNarland - Home Is Where My Feet Are.wav.auCDtect.txt
checkers\matrix.jpg
checkers\spectral.jpg
checkers\wave.jpg
checkers\EAC.jpg
DATA\DATA.ZIP
misc\info.txt
readme\[RUS] README No unpacking needed to play or burn this release.txt
readme\[ENG] README No unpacking needed to play or burn this release.txt
scans\back.png
scans\booklet02-03.png
scans\booklet04-05.png
scans\booklet06-07.png
scans\booklet08-09.png
scans\booklet10-11.png
scans\booklet12-13.png
scans\booklet14-15.png
scans\booklet16-17.png
scans\disk.png
scans\front.png
scans\inlay.png
#777Треклист:
1. So Cold (3:55)
2. Fly (3:30)
3. Dadada (3:32)
4. Sweet Lazy (4:13)
5. Every Single Time (2:41)
6. Dear Pain (3:16)
7. Dry as a Bone (4:24)
8. Bye Bye Boy (3:05)
9. Mermaid (3:49)
10. The Waltz (3:40)
11. Memory of a Man (3:42)
12. Sad Songs (4:44)
Доп. информация:
Тоже достаточно зрелый диск. Хотя и оставляет двойственное впечатление. С одной стороны, в лучших композициях ("Fly", "So Cold") Холли энергична и напоминает Amy Lee из Evanescense. С другой же ("Da da da") - зашкаливает в попсу. В общем, диск неплох, но пару песен можно и скипнуть...
Код:
Exact Audio Copy V1.0 beta 1 from 15. November 2010
EAC extraction logfile from 18. April 2011, 19:21
Holly McNarland / Chin Up Buttercup
Used drive  : SONY    DVD RW DRU-830A   Adapter: 1  ID: 0
Read mode               : Secure
Utilize accurate stream : Yes
Defeat audio cache      : Yes
Make use of C2 pointers : No
Read offset correction                      : 6
Overread into Lead-In and Lead-Out          : No
Fill up missing offset samples with silence : Yes
Delete leading and trailing silent blocks   : No
Null samples used in CRC calculations       : Yes
Used interface                              : Native Win32 interface for Win NT & 2000
Used output format              : User Defined Encoder
Selected bitrate                : 128 kBit/s
Quality                         : High
Add ID3 tag                     : No
Command line compressor         : C:\Program Files (x86)\Exact Audio Copy\wavpack\wavpack.exe
Additional command line options : -hlm %s
TOC of the extracted CD
     Track |   Start  |  Length  | Start sector | End sector
    ---------------------------------------------------------
        1  |  0:00.00 |  3:55.50 |         0    |    17674
        2  |  3:55.50 |  3:30.50 |     17675    |    33474
        3  |  7:26.25 |  3:32.44 |     33475    |    49418
        4  | 10:58.69 |  4:13.39 |     49419    |    68432
        5  | 15:12.33 |  2:41.03 |     68433    |    80510
        6  | 17:53.36 |  3:16.38 |     80511    |    95248
        7  | 21:09.74 |  4:24.51 |     95249    |   115099
        8  | 25:34.50 |  3:05.36 |    115100    |   129010
        9  | 28:40.11 |  3:49.24 |    129011    |   146209
       10  | 32:29.35 |  3:40.03 |    146210    |   162712
       11  | 36:09.38 |  3:42.28 |    162713    |   179390
       12  | 39:51.66 |  4:44.39 |    179391    |   200729
Range status and errors
Selected range
     Filename D:\_NL+_\flac\Holly McNarland - Chin Up Buttercup.wav
     Peak level 98.9 %
     Extraction speed 0.7 X
     Range quality 100.0 %
     Copy CRC 1959E1F8
     Copy OK
No errors occurred
AccurateRip summary
Track  1  accurately ripped (confidence 6)  [448BF5A0]
Track  2  accurately ripped (confidence 6)  [CAF7099A]
Track  3  accurately ripped (confidence 6)  [50B9342D]
Track  4  accurately ripped (confidence 6)  [37A65CDA]
Track  5  accurately ripped (confidence 6)  [00EBF0E1]
Track  6  accurately ripped (confidence 6)  [C34CC46C]
Track  7  accurately ripped (confidence 6)  [77E73EA3]
Track  8  accurately ripped (confidence 6)  [17A602AA]
Track  9  accurately ripped (confidence 6)  [27CB5506]
Track 10  accurately ripped (confidence 6)  [D81453E5]
Track 11  accurately ripped (confidence 6)  [AC5CD637]
Track 12  accurately ripped (confidence 6)  [CE9BF983]
All tracks accurately ripped
End of status report
==== Log checksum 59084B2286372A3E9759330FD495089C93A8CD51827FFD6C9BC0ECE34D2EBC8F ====
Код:
REM GENRE "Folk/Rock"
REM DATE 2007
REM DISCID 970A740C
REM COMMENT "ExactAudioCopy v1.0b1"
PERFORMER "Holly McNarland"
TITLE "Chin Up Buttercup"
FILE "Holly McNarland - Chin Up Buttercup 2007.wv" WAVE
  TRACK 01 AUDIO
    TITLE "So Cold"
    PERFORMER "Holly McNarland"
    FLAGS DCP
    INDEX 01 00:00:00
  TRACK 02 AUDIO
    TITLE "Fly"
    PERFORMER "Holly McNarland"
    FLAGS DCP
    INDEX 00 03:54:61
    INDEX 01 03:55:50
  TRACK 03 AUDIO
    TITLE "Da Da Da"
    PERFORMER "Holly McNarland"
    FLAGS DCP
    INDEX 00 07:25:20
    INDEX 01 07:26:25
  TRACK 04 AUDIO
    TITLE "Sweet Lazy"
    PERFORMER "Holly McNarland"
    FLAGS DCP
    INDEX 00 10:58:01
    INDEX 01 10:58:69
  TRACK 05 AUDIO
    TITLE "Every Single Time"
    PERFORMER "Holly McNarland"
    FLAGS DCP
    INDEX 00 15:11:06
    INDEX 01 15:12:33
  TRACK 06 AUDIO
    TITLE "Dear Pain"
    PERFORMER "Holly McNarland"
    FLAGS DCP
    INDEX 00 17:53:04
    INDEX 01 17:53:36
  TRACK 07 AUDIO
    TITLE "Dry As A Boy"
    PERFORMER "Holly McNarland"
    FLAGS DCP
    INDEX 00 21:07:56
    INDEX 01 21:09:74
  TRACK 08 AUDIO
    TITLE "Bye Bye Boy"
    PERFORMER "Holly McNarland"
    FLAGS DCP
    INDEX 00 25:32:38
    INDEX 01 25:34:50
  TRACK 09 AUDIO
    TITLE "Mermaid"
    PERFORMER "Holly McNarland"
    FLAGS DCP
    INDEX 00 28:38:04
    INDEX 01 28:40:11
  TRACK 10 AUDIO
    TITLE "The Waltz"
    PERFORMER "Holly McNarland"
    FLAGS DCP
    INDEX 00 32:28:13
    INDEX 01 32:29:35
  TRACK 11 AUDIO
    TITLE "Memory Of A Man"
    PERFORMER "Holly McNarland"
    FLAGS DCP
    INDEX 00 36:08:11
    INDEX 01 36:09:38
  TRACK 12 AUDIO
    TITLE "Sad Songs"
    PERFORMER "Holly McNarland"
    FLAGS DCP
    INDEX 00 39:51:40
    INDEX 01 39:51:66
Код:
-----------------------
DON'T MODIFY THIS FILE
-----------------------
PERFORMER: auCDtect Task Manager, ver. 1.5.1RC3 build 1.5.1.4
Copyright (c) 2008-2010 y-soft. All rights reserved
[url=http://y-soft.org]http://y-soft.org[/url]
ANALYZER: auCDtect: CD records authenticity detector, version 0.8.2
Copyright (c) 2004 Oleg Berngardt. All rights reserved.
Copyright (c) 2004 Alexander Djourik. All rights reserved.
FILE: Holly McNarland - Chin Up Buttercup.wav
  Size: 472117004 Hash: 6B85CE3EBE3D3063BD67A78B9D87F469 Accuracy: -m0
  Conclusion: CDDA 99%
  Signature: A7BD74CAC30405B7A7F65A7DCA59A307FFE75262
Holly McNarland - Chin Up Buttercup 2007.log
Holly McNarland - Chin Up Buttercup 2007.wv
Holly McNarland - Chin Up Buttercup 2007.wv.cue
disk.jpg
CURV9 70504V11.sig
back.jpg
front.jpg
checkers\Holly McNarland - Chin Up Buttercup 2007.accurip
checkers\Holly McNarland - Chin Up Buttercup.wav.auCDtect.txt
checkers\matrix.jpg
checkers\spectral.jpg
checkers\wave.jpg
checkers\EAC.jpg
misc\info.txt
readme\[RUS] README No unpacking needed to play or burn this release.txt
readme\[ENG] README No unpacking needed to play or burn this release.txt
scans\booklet01-12.png
scans\booklet02-03.png
scans\booklet04-05.png
scans\booklet06-07.png
scans\booklet08-09.png
scans\booklet10-11.png
scans\disk.png
scans\front.png
scans\inside.png
#777Треклист:
Alone's Just Fine
Only Money
Dig A Little
After I'm Gone
Whisper
You'll Forget About Me
Widow's Pane
Fish
Darlin'
Run Body Run
Доп. информация: После рождения второго ребёнка Холли МакНорланд снова вернулась в музыку. Этот альбом сделан полностью самостоятельно, - без звукозаписывающей компании, без менеджеров, без критиков. Весь перформанс, вся аранжировка - тоже свои.
Код:
Exact Audio Copy V1.0 beta 3 from 29. August 2011
EAC extraction logfile from 18. August 2013, 13:24
Holly McNarland / Run Body Run
Used drive  : PIONEER DVD-RW DVR-220RS   Adapter: 0  ID: 0
Read mode               : Secure
Utilize accurate stream : Yes
Defeat audio cache      : Yes
Make use of C2 pointers : No
Read offset correction                      : 6
Overread into Lead-In and Lead-Out          : No
Fill up missing offset samples with silence : Yes
Delete leading and trailing silent blocks   : No
Null samples used in CRC calculations       : Yes
Used interface                              : Native Win32 interface for Win NT & 2000
Used output format              : User Defined Encoder
Selected bitrate                : 128 kBit/s
Quality                         : High
Add ID3 tag                     : No
Command line compressor         : C:\Program Files (x86)\Exact Audio Copy\Wavpack\wavpack.exe
Additional command line options : -hlm %source% %dest%
TOC of the extracted CD
     Track |   Start  |  Length  | Start sector | End sector
    ---------------------------------------------------------
        1  |  0:00.00 |  3:59.57 |         0    |    17981
        2  |  3:59.57 |  3:02.12 |     17982    |    31643
        3  |  7:01.69 |  4:08.34 |     31644    |    50277
        4  | 11:10.28 |  4:45.01 |     50278    |    71653
        5  | 15:55.29 |  4:24.62 |     71654    |    91515
        6  | 20:20.16 |  4:05.46 |     91516    |   109936
        7  | 24:25.62 |  3:48.74 |    109937    |   127110
        8  | 28:14.61 |  4:24.58 |    127111    |   146968
        9  | 32:39.44 |  4:52.15 |    146969    |   168883
       10  | 37:31.59 |  4:09.68 |    168884    |   187626
Range status and errors
Selected range
     Filename C:\NL+ byTATUK\CD24\Holly McNarland - Run Body Run.wav
     Peak level 100.0 %
     Extraction speed 1.7 X
     Range quality 100.0 %
     Test CRC A94026AC
     Copy CRC A94026AC
     Copy OK
No errors occurred
AccurateRip summary
Track  1  not present in database
Track  2  not present in database
Track  3  not present in database
Track  4  not present in database
Track  5  not present in database
Track  6  not present in database
Track  7  not present in database
Track  8  not present in database
Track  9  not present in database
Track 10  not present in database
None of the tracks are present in the AccurateRip database
End of status report
---- CUETools DB Plugin V2.1.3
[CTDB TOCID: lPU7RjoMnkeqQHKYaCk5DB32e60-] found, Submit result: lPU7RjoMnkeqQHKYaCk5DB32e60- has been confirmed
[73db16a8] (2/2) Accurately ripped
==== Log checksum 0D2304FBE69E2AEF47D241A112639F80630D01AF21248BED4A6CEB1BFF5005D6 ====
Код:
REM GENRE "Alternative"
REM DATE 2012
REM DISCID 8209C50A
REM COMMENT "ExactAudioCopy v1.0b3"
PERFORMER "Holly McNarland"
TITLE "Run Body Run"
FILE "Holly McNarland - Run Body Run 2012.wv" WAVE
  TRACK 01 AUDIO
    TITLE "Alone's Just Fine"
    PERFORMER "Holly McNarland"
    FLAGS DCP
    INDEX 01 00:00:00
  TRACK 02 AUDIO
    TITLE "Only Money"
    PERFORMER "Holly McNarland"
    FLAGS DCP
    INDEX 01 03:59:57
  TRACK 03 AUDIO
    TITLE "Dig A Little"
    PERFORMER "Holly McNarland"
    FLAGS DCP
    INDEX 01 07:01:69
  TRACK 04 AUDIO
    TITLE "After I'm Gone"
    PERFORMER "Holly McNarland"
    FLAGS DCP
    INDEX 01 11:10:28
  TRACK 05 AUDIO
    TITLE "Whisper"
    PERFORMER "Holly McNarland"
    FLAGS DCP
    INDEX 01 15:55:29
  TRACK 06 AUDIO
    TITLE "You'll Forget About Me"
    PERFORMER "Holly McNarland"
    FLAGS DCP
    INDEX 00 20:19:12
    INDEX 01 20:20:16
  TRACK 07 AUDIO
    TITLE "Windows Pane"
    PERFORMER "Holly McNarland"
    FLAGS DCP
    INDEX 00 24:25:12
    INDEX 01 24:25:62
  TRACK 08 AUDIO
    TITLE "Fish "
    PERFORMER "Holly McNarland"
    FLAGS DCP
    INDEX 00 28:14:00
    INDEX 01 28:14:61
  TRACK 09 AUDIO
    TITLE "Darlin'"
    PERFORMER "Holly McNarland"
    FLAGS DCP
    INDEX 01 32:39:44
  TRACK 10 AUDIO
    TITLE "Run Body Run"
    PERFORMER "Holly McNarland"
    FLAGS DCP
    INDEX 00 37:30:73
    INDEX 01 37:31:59
Код:
-----------------------
DON'T MODIFY THIS FILE
-----------------------
PERFORMER: auCDtect Task Manager, ver. 1.6.0 RC1 build 1.6.0.1
Copyright (c) 2008-2010 y-soft. All rights reserved
[url=http://y-soft.org]http://y-soft.org[/url]
ANALYZER: auCDtect: CD records authenticity detector, version 0.8.2
Copyright (c) 2004 Oleg Berngardt. All rights reserved.
Copyright (c) 2004 Alexander Djourik. All rights reserved.
FILE: Holly McNarland - Run Body Run.wv
  Size: 287613986 Hash: 5CE05DB4BA6B29539116A10F0C6E44E5 Accuracy: -m0
  Conclusion: MPEG 85%
  Signature: AC98BA93B82761812BB551328C556510EA6168B9
Holly McNarland - Run Body Run 2012.log
Holly McNarland - Run Body Run 2012.wv
Holly McNarland - Run Body Run 2012.wv.cue
cd.jpg
back.jpg
front.jpg
FACTOR 10-99819.sig
checkers\Holly McNarland - Run Body Run 2012.accurip
checkers\Holly McNarland - Run Body Run.wv.auCDtect.txt
checkers\matrix.jpg
checkers\spectrum.jpg
checkers\wave.jpg
checkers\EAC.jpg
misc\info.txt
readme\[RUS] README No unpacking needed to play or burn this release.txt
readme\[ENG] README No unpacking needed to play or burn this release.txt
scans\front.png
scans\inside.png
scans\cd.png
Holly McNarland is a Canadian singer songwriter known for her emotional lyrics and her powerful voice.
Holly was born in the harsh Canadian prairies with it’s dramatic landscape and extreme temperatures. The land changes from the flat southern plains to the wooded lake filled north. The temperatures soar to the high thirties and then plummet to minus fifty in the long cold winter. Everyone born in Manitoba is affected by the surrounding nature and Holly is no exception. Her music can be exuberant and joyful, soul wrenchingly sorrowful, red hot with anger, and burning with passion. She sings about life, love, and loss.
Holly had a turbulent childhood. Her mother was a Metis (First Nations) singer in a country band. Her father was a cowboy who played in the band. The marriage disintegrated when Holly was two and she was only reconnected with her father a year ago. From the age of three, Holly knew she wanted to be a singer and quit school in year eight, determined to pursue her dream. She began gigging professionally at the age of seventeen in Winnipeg, her hometown, and by twenty one had her highly acclaimed EP, Sour Pie. At twenty two she was signed by Universal Worldwide and released the platinum charting Stuff.
Success immediately followed.
She has been compared to artists like Sinead O’Connor, PJ Harvey and Alanis Morrisette on the strength of her strong and oftentimes angry music. Holly collaborated with artists such as The Tea Party and Joey Santiago of The Pixies. Her sophomore album Home Is Where My Feet Are was produced by Warne Livesy, noted for his work with Midnight Oil on their albums Diesel and Dust and Redneck Wonderland.
Holly has garnered several accolades including a prestigious Juno award and gold and platinum albums. She has toured all across North America performing for thousands of fans. She has played many major festivals including Lilith Fair with Natalie Merchant, Liz Phair and Sarah McLachlan and at Canada’s most important Aboriginal events, such as headlining the 2004 National Aboriginal Achievement awards in Calgary. She was also highlighted with Buffy Sainte-Marie at the the 2008 Celebration of Aboriginal Canadian Women in Music after the Prime Minister’s Apology in Canada’s capital.
Presently based in Toronto with her partner, Chad Hunt, who plays bass in her band and her two children, Nege and Coco, she has returned to her musical roots for her latest self produced independent release, The Komrade Sessions. Although she is widely known as a pop/rock performer, this album is influenced by her Metis roots, the country music she grew up singing, and the sense of security she has finally found with her own family circle.
“I grew up singing country,” Holly says. “That’s how I learned to sing. It was just what was in my house. That and reggae. And somehow I don’t think I’m going to do reggae!”
For Holly, music is as natural as breathing.
“I’m just writing what comes to mind. I can’t say what the albums are going to be like. As far as my music, I feel like I did when I was eighteen. I feel free.”
Вот здесь раздаётся вышеупомянутый видео Holly McNarland - Live in the Great Hall. Кому понравилось аудио - можно позырить и видео.
Что такое iso.wv? Инструкция по эксплуатации
Правила, инструкции, FAQ!!!
Торрент  Добавлен [26 мар 2019, 19:17] Скачать торрент Магнет ссылка
Скачать торрент
[ Размер 7.99 КБ / Просмотров 5 ]

Статус
Проверен 
 
Размер  2.74 ГБ
Приватный: Нет (DHT включён)
.torrent скачан  0
 


     Отправить личное сообщение
   
Страница 1 из 1
Показать сообщения за:  Поле сортировки  
Начать новую тему Ответить на тему


Сейчас этот форум просматривают: нет зарегистрированных пользователей и гости: 0


Вы не можете начинать темы
Вы не можете отвечать на сообщения
Вы не можете редактировать свои сообщения
Вы не можете удалять свои сообщения
Вы не можете добавлять вложения

Перейти:  
cron