Начать новую тему Ответить на тему
Статистика раздачи
Размер: 350.1 МБ | Добавлен: 26 мар 2019, 20:31 | Скачали: 0
Сидеров: 0  [0 байт/сек]    Личеров: 0  [0 байт/сек]
Пред. тема | След. тема 

Автор
Сообщение

СообщениеДобавлено: 26 мар 2019, 20:31 

Ответить с цитатой 

Colin Hay - Are You Lookin' At Me?
Жанр: Alternative/ Indie Rock/Singer/ Songwriter
Год выпуска диска: 2007
Производитель диска: Lazy Eye Records America,Inc./Compass
Аудио кодек: FLAC
Тип рипа: image+.cue
Битрейт аудио: lossless
Продолжительность: 49:09:28
Источник:Собственный рип
Трэклист:
01. Are You Lookin' At Me? 04:12
02. Lose To Win 03:58
03. Here In My Hometown 05:24
04. Up In Smoke 03:37
05. No One Knows 03:58
06. This Time I Got You 04:07
07. Lonely Without You 03:54
08. What Would Bob Do? 04:46
09. Pure Love 03:25
10. Me And My Imaginary Friend 03:02
11. Land Of The Midnight Sun 04:27
12. I Wish I Was Still Drinkin' 04:14

Доп. информация:
" В апреле 2007 года на лейбле Compass Records вышла в свет коллекция нового сольного материала Колина Хэя под названием «Are You Lookin' At Me?». Записанный и спродюсированный самим автором, альбом представляет массу приглашенных музыкантов, включая жену Хэя. Название заглавной композиции можно также расценивать, как интроспективный и биографический вояж, позволяющий взглянуть на культурные и музыкальные влияния Хэя, начиная с его переезда из Шотландии в Австралию, где развивалась его карьера, как фронтмена и автора всех хитов популярной в 80-е годы группы Men At Work."
Exact Audio Copy V0.99 prebeta 4 from 23. January 2008
Отчёт EAC об извлечении, выполненном 10. февраля 2010, 22:59
Colin Hay / Are You Lookin' At Me?
Дисковод: LITE-ON DVDRW LH-20A1H Adapter: 0 ID: 0
Режим чтения : Достоверность
Использование точного потока : Да
Отключение кэша аудио : Да
Использование указателей C2 : Нет
Коррекция смещения при чтении : 6
Способность читать области Lead-in и Lead-out : Нет
Заполнение пропущенных сэмплов тишиной : Да
Удаление блоков с тишиной в начале и конце : Нет
При вычислениях CRC использовались нулевые сэмплы : Да
Интерфейс : Установленный внешний ASPI-интерфейс
Выходной формат : Пользовательский кодировщик
Выбранный битрейт : 768 kBit/s
Качество : Высокий
Добавление ID3-тэга : Нет
Утилита сжатия : C:\Program Files\Exact Audio Copy\FLAC\FLAC.EXE
Дополнительные параметры : -6 -V -T "ARTIST=%a" -T "TITLE=%t" -T "ALBUM=%g" -T "DATE=%y" -T "TRACKNUMBER=%n" -T "GENRE=%m" -T "COMMENT=%e" %s -o %d
TOC извлечённого CD
Трек | Старт | Длительность | Начальный сектор | Конечный сектор
---------------------------------------------------------------------
1 | 0:00.00 | 4:12.28 | 0 | 18927
2 | 4:12.28 | 3:58.22 | 18928 | 36799
3 | 8:10.50 | 5:24.29 | 36800 | 61128
4 | 13:35.04 | 3:37.15 | 61129 | 77418
5 | 17:12.19 | 3:58.32 | 77419 | 95300
6 | 21:10.51 | 4:07.32 | 95301 | 113857
7 | 25:18.08 | 3:54.27 | 113858 | 131434
8 | 29:12.35 | 4:46.60 | 131435 | 152944
9 | 33:59.20 | 3:25.15 | 152945 | 168334
10 | 37:24.35 | 3:02.59 | 168335 | 182043
11 | 40:27.19 | 4:27.72 | 182044 | 202140
12 | 44:55.16 | 4:14.13 | 202141 | 221203
Характеристики диапазона извлечения и сообщения об ошибках
Выбранный диапазон
Имя файла G:\1-RAB\Colin Hay-Are You Lookin' At Me 2007\Colin Hay - Are You Lookin' At Me.wav
Пиковый уровень 98.9 %
Качество диапазона 99.9 %
CRC теста B8588264
CRC копии B8588264
Копирование... OK
Ошибок не произошло
AccurateRip: сводка
Трек 1 точное извлечение (доверие 4) [231C706C]
Трек 2 точное извлечение (доверие 4) [C6AB1844]
Трек 3 точное извлечение (доверие 4) [778CB0FF]
Трек 4 точное извлечение (доверие 4) [AADEF7DC]
Трек 5 точное извлечение (доверие 4) [A3BFB66A]
Трек 6 точное извлечение (доверие 4) [92FC1356]
Трек 7 точное извлечение (доверие 4) [491AD4DF]
Трек 8 точное извлечение (доверие 4) [703E255E]
Трек 9 точное извлечение (доверие 4) [40CD9D71]
Трек 10 точное извлечение (доверие 4) [3123505F]
Трек 11 точное извлечение (доверие 4) [32C60B57]
Трек 12 точное извлечение (доверие 4) [A4032095]
Все треки извлечены точно
Конец отчёта
Правила, инструкции, FAQ!!!
Торрент  Добавлен [26 мар 2019, 20:31] Скачать торрент Магнет ссылка
Скачать торрент
[ Размер 2.46 КБ / Просмотров 1 ]

Статус
Проверен 
 
Размер  350.1 МБ
Приватный: Нет (DHT включён)
.torrent скачан  0
 


     Отправить личное сообщение
   
Страница 1 из 1
Показать сообщения за:  Поле сортировки  
Начать новую тему Ответить на тему


Сейчас этот форум просматривают: нет зарегистрированных пользователей и гости: 0


Вы не можете начинать темы
Вы не можете отвечать на сообщения
Вы не можете редактировать свои сообщения
Вы не можете удалять свои сообщения
Вы не можете добавлять вложения

Перейти:  
cron