Начать новую тему Ответить на тему
Статистика раздачи
Размер: 263.24 МБ | Добавлен: 07 янв 2020, 21:42 | Скачали: 30
Сидеров: 5  [0 байт/сек]    Личеров: 1  [0 байт/сек]
Пред. тема | След. тема 

Автор
Сообщение

СообщениеДобавлено: 07 янв 2020, 21:42 

Ответить с цитатой 

Cypress Hill - Cypress Hill (DoLP 180g )
Жанр: Alternative Hip-Hop
Год выпуска: 1991
Страна-производитель: EU
Аудио кодек: FLAC
Тип рипа: tracks
Формат записи: 24/96
Формат раздачи: 16/44
Продолжительность: 46:49
Треклист:
Side A
"Pigs" (Freese, Muggerud) – 2:51
"How I Could Just Kill a Man" (Freese, Muggerud, Reyes) – 4:16
"Hand on the Pump" (Bouldin, Freese, Muggerud) – 4:03
"Hole in the Head" (Freese, Muggerud) – 3:33
Side B
"Ultraviolet Dreams" (Muggerud) – 0:41
"Light Another" (Freese, Muggerud) – 3:17
"The Phuncky Feel One" (Freese, Muggerud, Reyes) – 3:28
"Break It Up" (Muggerud) – 1:07
Side C
"Real Estate" (Freese, Muggerud, Reyes) – 3:45
"Stoned Is the Way of the Walk" (Freese, Muggerud) – 2:46
"Psycobetabuckdown" (Freese, Muggerud) – 2:59
"Something for the Blunted" (Muggerud) – 1:15
Side D
"Latin Lingo" (Freese, Muggerud, Reyes) – 3:58
"The Funky Cypress Hill Shit" (Freese, Muggerud) – 4:01
"Tres Equis" (Muggerud, Reyes) – 1:54
"Born to Get Busy" (Muggerud, Reyes) – 3:00
Технические Данные:
RCM Hannl 'limited' with "Circulating Brush"
Music Hall MMF 9.1 Turntable
Tonearm: Pro-Ject 9cc evo with Pure Silver Wires
Cartridge: Nagaoka MP-500
Brocksieper Phonomax (Tube Phono PreAmp) (temporarily replaced by "ProJect Tube-Box 2 SE)
E-MU 0404 external USB 2.0 Audiointerface
Interconnections : Silent Wire NF5
WaveLab 6 recording software
iZotope RX Advanced 1.21 for resampling and dithering
Vacuum cleaning > TT > Brocksieper Phonomax > E-MU 0404 > WaveLab 6 (24/192) > manual click removal >
analyze (no clipping, no DC Bias offset) > converted to 24/96 (16/44.1) with iZotope RX Advanced 1.21
> split into individual Tracks > FLAC encoded (Vers. 1.21)
No silence been removed, please burn gapless to match original tracklayout.
The following lists some songs and sounds sampled for Cypress Hill.
Pigs
"Ali; Funky Thing" by Chuck Cornish
How I Could Just Kill a Man
"Tramp" by Lowell Fulsom
"Midnight Theme" by Manzel
"Come on In" by Music Machine
"Are You Experienced" by Jimi Hendrix
"Institutionalized" by Suicidal Tendencies
"Escape-ism", "I Got Ants in My Pants", & "I Got to Move" by James Brown
Speech by Fiorello La Guardia
Hand on the Pump
"Duke of Earl" by Gene Chandler
"Shotgun" by Junior Walker & the All Stars
Hole in the Head
"The Bird" by Jimmy McGriff
Ultraviolet Dreams
"Tom Cat" by Muddy Waters
Light Another
"Good Times" by Kool & the Gang
The Phuncky Feel One
"More Peas" by the J.B.'s
"Hector" by Village Callers
"Look Ka Py Py" by the Meters
"Give it Up" by Kool & the Gang
"La Di Da La Di Day" by the J.B.'s
"Blues and Pants" by James Brown
"Fight the Power" by the Isley Brothers
"The Breakdown Pt I & II" by Rufus Thomas
"Life is What You Make It" by Kool & the Gang
Break It Up
"Compared to What" by Les McCann & Eddie Harris
"Down By Law" by Fab Five Freddy
Real Estate
"Copy Cat" by the Bar-Kays
"Humpin'" by the Bar-Kays
"Underdog" by Sly & the Family Stone
"Sexy Coffee Pot" by Tony Avalon & the Belairs
"Cramp Your Style" by All the People featuring Robert Moore
Stoned Is the Way of the Walk
"Down Here on the Ground" by Grant Green
Psycobetabuckdown
"Foxy Lady" by Willie Hutch
"Aquaboogie (A Psychoalphadiscobetabioaquadoloop)" by Parliament
Something for the Blunted
"Future Shock" by Curtis Mayfield
"Smokin Cheeba Cheeba" by Harlem Underground Band
Latin Lingo
"Mongoose" by Elephant's Memory
"Sing a Simple Song" by Sly & the Family Stone
"Funky Music Sho Nuff Turns Me On" by Edwin Starr
"A Gritty Nitty" by Pazant Brothers and the Beaufort Express
The Funky Cypress Hill Shit
"Fencewalk" by Mandrill
"Hector" by Village Callers
"The New Dance Craze" by Five Stairsteps
Dialogue excerpt from the film Car Wash
Tres Equis
"Sophisticated Funk" by John Roberts
Born to Get Busy
"Bootleg" by Booker T. & the MG's


----------------------------------------------------------------------------------------------
Analyzed folder: D:\Recording\16-44 (redbook)\Cypress Hill - same (1991) [flac] {Music On Vinyl 180g DoLP; 16-44}\
----------------------------------------------------------------------------------------------
DR Peak RMS Filename
----------------------------------------------------------------------------------------------
DR13 -1.14 dB -16.45 dB A1 - Pigs.wav
DR11 -4.05 dB -17.17 dB A2 - How I Could Just Kill a Man.wav
DR13 -1.04 dB -16.06 dB A3 - Hand on the Pump.wav
DR14 -0.92 dB -17.22 dB A4 - Hole in the Head.wav
DR12 -3.01 dB -18.14 dB B1 - Ultraviolet Dreams.wav
DR15 -0.02 dB -17.24 dB B2 - Light Another.wav
DR14 -3.01 dB -19.18 dB B3 - The Phuncky Feel One_batch1.wav
DR13 -5.90 dB -22.05 dB B4 - Break It Up.wav
DR14 -2.70 dB -18.05 dB C1 - Real Estate.wav
DR13 -0.35 dB -15.91 dB C2 - Stoned Is the Way of the Walk.wav
DR14 -1.11 dB -17.28 dB C3 - Psycobetabuckdown.wav
DR12 -5.62 dB -19.60 dB C4 - Something for the Blunted.wav
DR14 -2.04 dB -17.16 dB D1 - Latin Lingo.wav
DR11 -4.58 dB -17.28 dB D2 - The Funky Cypress Hill Shit.wav
DR12 -3.28 dB -17.36 dB D3 - Tres Equis.wav
DR11 -2.47 dB -17.50 dB D4 - Born to Get Busy.wav
----------------------------------------------------------------------------------------------
Number of files: 16
Official DR value: DR13
==============================================================================================
Правила, инструкции, FAQ!!!
Торрент  Добавлен [07 янв 2020, 21:42] Скачать торрент Магнет ссылка
Скачать торрент
[ Размер 12.37 КБ / Просмотров 12 ]

Статус
Проверен 
 
Размер  263.24 МБ
Приватный: Нет (DHT включён)
.torrent скачан  30
 


     Отправить личное сообщение
   
Страница 1 из 1
Показать сообщения за:  Поле сортировки  
Начать новую тему Ответить на тему


Сейчас этот форум просматривают: нет зарегистрированных пользователей и гости: 0


Вы не можете начинать темы
Вы не можете отвечать на сообщения
Вы не можете редактировать свои сообщения
Вы не можете удалять свои сообщения
Вы не можете добавлять вложения

Перейти:  
cron